Визит (Виктор Шрайман) [2013 г., драма, SATRip] Нижегородский государственный театр юного зрителя


 

[Цитировать]

ВизитНазвание театра: Нижегородский государственный театр юного зрителя.
Год выпуска: 2013.
Жанр: драма.
Продолжительность: 02:43:56.
Режиссеры: Виктор Шрайман.
Действующие лица и исполнители:
Клара Цаханассьян — урожденная Вешер, мультимиллионерша – Ираида Троицкая,
Муж (Седьмой, восьмой, девятый) – Артем Потапов,
Дворецкий – заслуженный артист России Александр Айрапетов,
Коби и Лоби - заслуженный артист России Вячеслав Шаповалов, Александр Шмелев,
Альфред Илл – Владимир Берегов,
Его жена – Диана Шрайман,
Дочь – Анна Сильчук,
Сын – Никита Чеботарёв,
Бургомистр – Игорь Авров,
Его внучка - Анна Бледнекова,
Священник - народный артист России Леонид Ремнёв,
Учитель - Александр Барковский,
Врач – заслуженный артист России Евгений Калабанов,
Полицейский – Олег Фаттахов,
Хаузер – Владимир Вышеславский,
Кюн – Иван Пилявский,
Хофбауер – Алексей Филиппов,
Хельмесбергер – заслуженный артист России Анатолий Чухнов,
Горожанки - заслуженная артиска России Ирина Долганова, Ирина Буклова, Ирина Страхова, заслуженная артистка России Марина Чернова, Надежда Афанасьичева, Светлана Дацук, Диана Кононенко, заслуженная артиска России Елена Фирстова,
Начальник поезда – заслуженный артист России Евгений Калабанов,
Судебный исполнитель Шитлер – Дмитрий Соколов,
Его спутники – Сергей Балашов, Константин Кузьмичёв, Диана Кононенко, Татьяна Миронова, Михаил Морозов, Юлия Соколова, Никита Чеботарёв,
Первый газетчик – Федор Боровков,
Второй газетчик – Дмитрий Соколов,
Гимнаст – Сергей Балашов,
Пугливые косули – Сергей Балашов, Диана Кононенко, Елизавета Кошевая, Анна Лебедева, Михаил Морозов, Анна Сильчук, Юлия Соколова, Дмитрий Соколов, Алексей Филиппов,
Певица – Елизавета Кошевая,
Горожане - артисты театра.
О спектакле:
Действие пьесы Фридриха Дюрренматта "Визит старой дамы" или "Визит" происходит в небольшом европейском городке Гюллене. В Гюллен приезжает миллиардерша Клара Вешер, покинувшая его против своей воли почти полвека назад при весьма драматических обстоятельствах. Обнищавшие жители Гюллена надеются, что их богатая землячка возродит прежнее величие их города и обогатит его жителей. Они надеются, что встреча Клары с ее бывшим возлюбленным Альфредом, жителем этого города, растрогает миллиардершу, разбудит в ней память о ее любимом. Клара соглашается помочь городу, но ставит при этом одно условие. Теперь горожанам Гюллена предстоит сделать непростой выбор.
Дополнительная информация:
Страна: Россия .
Автор: Фридрих Дюрренматт.
Художник: Владимир Ширин.
Музыкальное оформление: Виктор Шрайман.
Хореограф: Асия Горбачёва.
Главный режиссер Нижегородского Театра Юного Зрителя: Виктор Шрайман.
Премьера спектакля состоялась: 23 марта 2013 года.

О спектакле.
Релиз

Качество видео:...SATRip
Формат:.................AVI
Видео:..720x400 (1.80:1), 25 fps, XviD MPEG-4 ~1134 kbps avg, 0.16 bit/pixel
Аудио:..44.100 kHz, MPEG Layer 3, 2 ch, ~128.00 kbps avg

Отчет Media Info

General
Complete name : Vizit_Nizhegorodskij.TYuZ.2013.XviD.SATRip.fenixclub.avi
Формат : AVI
Формат/Информация : Audio Video Interleave
Размер файла : 1,46 Гбайт
Продолжительность : 2 ч. 43 м.
Общий поток : 1273 Кбит/сек
Программа кодирования : VirtualDubModRus 1.5.10.2 (build 2542/release)
Библиотека кодирования : VirtualDub build 32842/release
Видео
Идентификатор : 0
Формат : MPEG-4 Visual
Профиль формата : Advanced Simple@L5
Параметр BVOP формата : 2
Параметр QPel формата : Нет
Параметр GMC формата : Без точки перехода
Параметр матрицы формата : Default (H.263)
Режим смешивания : Сжатый битовый поток
Идентификатор кодека : XVID
Идентификатор кодека/Подсказка : XviD
Продолжительность : 2 ч. 43 м.
Битрейт : 1135 Кбит/сек
Ширина : 720 пикселей
Высота : 400 пикселей
Соотношение сторон : 16:9
Частота кадров : 25,000 кадров/сек
Цветовое пространство : YUV
Субдискретизация насыщенности : 4:2:0
Битовая глубина : 8 бит
Тип развёртки : Прогрессивная
Метод сжатия : С потерями
Бит/(Пиксели*Кадры) : 0.158
Размер потока : 1,30 Гбайт (89%)
Библиотека кодирования : XviD 1.2.1 (UTC 2008-12-04)
Аудио
Идентификатор : 1
Формат : MPEG Audio
Версия формата : Version 1
Профиль формата : Layer 3
Режим : Joint stereo
Расширение режима : MS Stereo
Идентификатор кодека : 55
Идентификатор кодека/Подсказка : MP3
Продолжительность : 2 ч. 43 м.
Вид битрейта : Постоянный
Битрейт : 128 Кбит/сек
Каналы : 2 канала
Частота : 44,1 КГц
Метод сжатия : С потерями
Размер потока : 150 Мбайт (10%)
Выравнивание : Разделение по промежуткам
Продолжительность промежутка : 40 мс. (1,00 видеокадр)
Время предзагрузки промежутка : 500 мс.
Библиотека кодирования : LAME3.99.5

Скриншот с названием постановки

Скриншоты


Альтернативный хост





Показать сообщения:    

Текущее время: 10-Дек 02:17

Часовой пояс: UTC + 3


Вы не можете начинать темы
Вы не можете отвечать на сообщения
Вы не можете редактировать свои сообщения
Вы не можете удалять свои сообщения
Вы не можете голосовать в опросах
Вы не можете прикреплять файлы к сообщениям
Вы не можете скачивать файлы