Двенадцать месяцев (Тереза Дурова) [2013, Мюзикл для всей семьи, SATRip] «Театриум на Серпуховке»


 

[Цитировать]

Двенадцать месяцевНазвание театра: «Театриум на Серпуховке».
Год выпуска: 2013.
Жанр: Мюзикл для всей семьи.
Продолжительность: 01:19:25.
Режиссеры: народная артистка России Тереза Дурова, Владимир Ананьев, Елена Черняк.
Действующие лица и исполнители:
Принцесса - Анастасия Тюкова,
Принц - Гергий Сукосян,
Первая фрейлина - Юлия Юнушева,
Вторая Фрейлина - Оксана Варняга,
Третья фрейлина - Юлия Андриянова,
Четвёртая фрейлина - Юлия Сдвижкова,
Учитель - Константин Лещенко,
Дворецкий - Пётр Королёв,
Бедная Лиза - Анна Прокопьева,
Мачеха - Татьяна Михайлюк,
Первая дочь - Виолетта Бучинская,
Вторая дочь - Эльвира Казанцева,
Солдат - Евгений Мишечкин,
Заяц - Геннадий Краковский,
Команда весёлых конькобежцев: Людмила Марфелева, Наталья Самсонова, Сергей Дик, Мамука Заркуа, Сергей Рывкин.
О спектакле:
"Двенадцать месяцев" – эксцентричный спектакль, в котором нет никакой дидактики. Это полная юмора и озорства сказка, которая случается как раз под Новый год. Есть тут и капризная принцесса со своими учителями, и злая мачеха, желающая получить корзину золота, и добросовестная падчерица, выполняющая всю чёрную работу, и её сводные сестры-тунеядки, и, естественно, волшебные двенадцать братьев-месяцев. И, конечно, мачеха, услышав королевский указ, отправляет падчерицу за подснежниками в декабрьский лес... Но в версии "Театриума" принцесса отнюдь не маленькая капризная девочка, а уже невеста. И падчерица Лиза тоже.
Это не та сказка, которую вы читали в детстве. Потому что для постановки драматург Артём Абрамов написал новую пьесу. В ней сохранена основная сюжетная линия, но автор сделал новогоднюю историю непредсказуемой.

Дополнительная информация:
Страна: Россия .
Выпущено: © АНО "Общественное телевидение России".
Автор пьесы: Артём Абрамов.
Композитор: заслуженный деятель искусств России Ефрем Подгайц.
Текст песен: Андрей Усачёв.
Режиссёр-постановщик: народная артистка России Тереза Дурова.
Режиссёр: Владимир Ананьев.
Художник-постановщик: народный художник России Мария Рыбасова, Ольга Резниченко.
Художники по костюмам: заслуженная артистка России Виктория Севрюкова.
Хореограф-постановщик: Артур Ощепков.
Художник по свету: заслуженный работник культуры России Андрей Изотов.
Музыкальный руководитель и дирижёр: Максим Гуткин.
Художественный руководитель «Театриума на Серпуховке»: народная артистка России Тереза Дурова.
Премьера спектакля состоялась 21 декабря 2013 года.
Режиссер телеверсии: Елена Черняк.
Оператор-постановщик: Игорь Хорев.
Оркестр:
Дирижёр
- Максим Гуткин,
Синтезатор - Ольга Яковлева,
Флейта - Игорь Ковалев, Юрий Чевин,
Кларнет, саксофон, альт - Кочар Темирджанов, Сергей Ирьянов,
Тромбон - Александр Полозов, Андриан Принцев, Андрей Шербашин,
Труба - Петр Воронецкий,
Аккордеон - Сергей Осокин, Андрей Луковский,
Виолончель - Антон Павловский, Михаил Звоников, Илья Пашинцев,
Скрипка - Илья Мовчан, Александр Бронвейбер, Екатерина Луковская,
Бас-гитара, контрабас - Евгений Козлов, Павел Горюшкин,
Ударные инструменты - Александр Чеботарев, Василий Колода, Павел Демидов.

О спектакле.

Еще постер

Релиз
Рип lesik689.

Качество видео:...SATRip
Формат:.................AVI
Видео:..720x400 (1.80:1), 25 fps, XviD MPEG-4 ~1818 kbps avg, 0.25 bit/pixel
Аудио:..48 kHz, MPEG Layer 3, 2 ch, ~128.00 kbps avg

Отчет Media Info

General
Complete name : Dvenadtsat'.mesjatsev_Teatrium.na.Serpukhovke.2013.XviD.SATRip.fenixclub.avi
Формат : AVI
Формат/Информация : Audio Video Interleave
Размер файла : 1,09 Гбайт
Продолжительность : 1 ч. 19 м.
Общий поток : 1957 Кбит/сек
Программа кодирования : VirtualDubMod 1.5.10.2 (build 2542/release)
Библиотека кодирования : VirtualDubMod build 2542/release
Видео
Идентификатор : 0
Формат : MPEG-4 Visual
Профиль формата : Advanced Simple@L5
Параметр BVOP формата : 2
Параметр QPel формата : Нет
Параметр GMC формата : Без точки перехода
Параметр матрицы формата : Default (MPEG)
Режим смешивания : Сжатый битовый поток
Идентификатор кодека : XVID
Идентификатор кодека/Подсказка : XviD
Продолжительность : 1 ч. 19 м.
Битрейт : 1819 Кбит/сек
Ширина : 720 пикселей
Высота : 400 пикселей
Соотношение сторон : 5:4
Соотношение сторон в оригинале : 16:9
Частота кадров : 25,000 кадров/сек
Цветовое пространство : YUV
Субдискретизация насыщенности : 4:2:0
Битовая глубина : 8 бит
Тип развёртки : Прогрессивная
Метод сжатия : С потерями
Бит/(Пиксели*Кадры) : 0.253
Размер потока : 1,01 Гбайт (93%)
Библиотека кодирования : XviD 64
Аудио
Идентификатор : 1
Формат : MPEG Audio
Версия формата : Version 1
Профиль формата : Layer 3
Режим : Joint stereo
Расширение режима : MS Stereo
Идентификатор кодека : 55
Идентификатор кодека/Подсказка : MP3
Продолжительность : 1 ч. 19 м.
Вид битрейта : Постоянный
Битрейт : 128 Кбит/сек
Каналы : 2 канала
Частота : 48,0 КГц
Метод сжатия : С потерями
Размер потока : 72,7 Мбайт (7%)
Выравнивание : Разделение по промежуткам
Продолжительность промежутка : 39 мс. (0,99 видеокадр)
Время предзагрузки промежутка : 500 мс.

Скриншот с названием постановки

Скриншоты


Альтернативный хост





Показать сообщения:    

Текущее время: 08-Дек 14:57

Часовой пояс: UTC + 3


Вы не можете начинать темы
Вы не можете отвечать на сообщения
Вы не можете редактировать свои сообщения
Вы не можете удалять свои сообщения
Вы не можете голосовать в опросах
Вы не можете прикреплять файлы к сообщениям
Вы не можете скачивать файлы