По самому по краю (Михаил Щепенко, Тамара Баснина) [2006 г., невыдуманная история с невыдуманными героями, WEB-DLRip] Московский театр русской драмы "Камерная сцена"


 

[Цитировать]

По самому по краю Название театра: Московский театр русской драмы "Камерная сцена".
Год выпуска: 2006.
Жанр: невыдуманная история с невыдуманными героями.
Продолжительность: 01:36:18.
Режиссеры-постановщики: заслуженный деятель искусств России Михаил Щепенко, заслуженный деятель искусств России Тамара Баснина.
Действующие лица и исполнители:
Андрей - Валерий Андреев,
Лена, его жена - заслуженная артистка России Валерия Полякова,
Их дети - Лиза Аверина, Катя Аверина,
Анна Петровна - заслуженный деятель искусств России Тамара Баснина,
Теща - Светлана Юруткина,
Люська, сестра Лены - Ольга Краюшкина,
Лёха - заслуженный артист России Аркадий Аверин,
Славик - заслуженный артист России Дмитрий Поляков,
Генка - заслуженный артист России Алексей Савченко,
Галя, его жена - заслуженная артистка России Юлия Щепенко,
Борька - Геннадий Кухаренко,
Лёва - Василий Васильев,
Ромка - Павел Левицкий.
В спектакле принимают участие:
члены общины трезвости при Никольском Храме (с. Ромашково Московской области):

Татьяна Бедирханова, Георгий Гусев, Дмитрий Девяткин, Олег Козлов, Елена Савина,
и актеры театра:
Ирина Обложнова, Сергей Нестеров, Алексей Зеленков.
О спектакле:
То, что происходит в спектакле, непосредственно касается каждого из нас. Человек на краю пропасти. Но он не один. С ним – его близкие. Смогут ли они удержать его, или же, наоборот, он увлечет их за собой в бездну?
Дополнительная информация:
Страна: Россия .
Выполнено: © ООО Продюсерский центр "Корабль" по заказу театра "Камерная сцена".
Автор: заслуженный деятель искусств России Михаил Щепенко.
Постановка и сценография: заслуженный деятель искусств России Михаил Щепенко, заслуженный деятель искусств России Тамара Баснина.
В спектакле звучат песни: Владимира Высоцкого.
Светооператор: Анна Власова.
Звукооператор: Александр Зарубин.
Художественный руководитель театра: заслуженный деятель искусств России Михаил Щепенко.
Премьера спектакля состоялась 12 июня 2005 года.
Над телеверсией работали: Андрей Кирисенко, Виталий Бубенков, Ирина Холмогорская.

О спектакле.
Релиз
Рип sharky.

Качество видео:...WEB-DLRip
Формат:.................AVI
Видео:..704x528 (1.33:1), 25 fps, XviD build 50 ~1411 kbps avg, 0.15 bit/pixel
Аудио:..48 kHz, AC3 Dolby Digital, 2/0 (L,R) ch, ~192 kbps

Отчет Media Info

General
Complete name : Po.samomu.po.krayu_MTRD.Kamernaya,scena.2006.XviD.WEB-DLRip.fenixclub.avi
Формат : AVI
Формат/Информация : Audio Video Interleave
Размер файла : 1,09 Гбайт
Продолжительность : 1 ч. 36 м.
Общий поток : 1614 Кбит/сек
Программа кодирования : VirtualDubMod 1.5.10.3 | www.virtualdub-fr.org || (build 2550/release)
Библиотека кодирования : VirtualDubMod build 2550/release
Видео
Идентификатор : 0
Формат : MPEG-4 Visual
Профиль формата : Advanced Simple@L5
Параметр BVOP формата : 1
Параметр QPel формата : Нет
Параметр GMC формата : Без точки перехода
Параметр матрицы формата : Default (H.263)
Идентификатор кодека : XVID
Идентификатор кодека/Подсказка : XviD
Продолжительность : 1 ч. 36 м.
Битрейт : 1412 Кбит/сек
Ширина : 704 пикселя
Высота : 528 пикселей
Соотношение сторон : 4:3
Частота кадров : 25,000 кадров/сек
Цветовое пространство : YUV
Субдискретизация насыщенности : 4:2:0
Битовая глубина : 8 бит
Тип развёртки : Прогрессивная
Метод сжатия : С потерями
Бит/(Пиксели*Кадры) : 0.152
Размер потока : 972 Мбайт (87%)
Библиотека кодирования : XviD 1.2.1 (UTC 2008-12-04)
Аудио
Идентификатор : 1
Формат : AC-3
Формат/Информация : Audio Coding 3
Расширение режима : CM (complete main)
Параметр Endianness формата : Big
Идентификатор кодека : 2000
Продолжительность : 1 ч. 36 м.
Вид битрейта : Постоянный
Битрейт : 192 Кбит/сек
Каналы : 2 канала
Расположение каналов : Front: L R
Частота : 48,0 КГц
Битовая глубина : 16 бит
Метод сжатия : С потерями
Размер потока : 132 Мбайт (12%)
Выравнивание : Разделение по промежуткам
Продолжительность промежутка : 40 мс. (1,00 видеокадр)
Время предзагрузки промежутка : 500 мс.

Скриншоты


Альтернативный хост





Показать сообщения:    

Текущее время: 10-Дек 07:58

Часовой пояс: UTC + 3


Вы не можете начинать темы
Вы не можете отвечать на сообщения
Вы не можете редактировать свои сообщения
Вы не можете удалять свои сообщения
Вы не можете голосовать в опросах
Вы не можете прикреплять файлы к сообщениям
Вы не можете скачивать файлы