Пьеса для Аделаиды (Валерий Сторчак) [2013 г., сатирическая комедия, WEB-DLRip] Московский областной государственный драматический камерный театр


 

[Цитировать]

Пьеса для Аделаиды Название театра: Московский областной государственный драматический камерный театр.
Год выпуска: 2013.
Жанр: сатирическая комедия.
Продолжительность: 01:43:47.
Режиссер: Валерий Сторчак.
Действующие лица и исполнители:
Грознов - Олег Курлов,
Аделаида Павловна - Татьяна Губанова,
Ухарев - Сергей Вершинин,
Олегович - Николай Басканчин,
Ольга - Наталья Качалкина,
Прохор - Андрей Исаенков,
и другие.
О спектакле:
Сатирическая комедия по водевилю Владимира Соллогуба «Сотрудники, или Чужим добром не наживешься».
Куртуазные приключения литераторов происходят на фоне бурных до скандальности выяснений: кто «круче» – питерские или московские, «западники» или «славянофилы». В спорах истина не рождается, а вот юмор высекается крупными искрами.

Дополнительная информация:
Страна: Россия .
Автор: Владимир Соллогуб.
Художник по костюмам: Елена Ярошенко.
Художественный руководитель театра: заслуженный артист России, заслуженный деятель искусств России Валерий Якунин.

Релиз
Рип sharky.

Качество видео:...WEB-DLRip
Формат:.................AVI
Видео:..704x400 (1.76:1), 25 fps, DivX Codec 5.x or 6.x ~1369 kbps avg, 0.19 bit/pixel
Аудио:..44.100 kHz, MPEG Layer 3, 2 ch, ~128.00 kbps avg

Отчет Media Info

General
Complete name : P'esa.dlya.Adelaidy_MOGDKT.2013.DivX.WEB-DLRip.fenixclub.avi
Формат : AVI
Формат/Информация : Audio Video Interleave
Размер файла : 1,09 Гбайт
Продолжительность : 1 ч. 43 м.
Общий поток : 1507 Кбит/сек
Видео
Идентификатор : 0
Формат : MPEG-4 Visual
Параметр BVOP формата : 1
Параметр QPel формата : Нет
Параметр GMC формата : Без точки перехода
Параметр матрицы формата : Default (H.263)
Режим смешивания : Сжатый битовый поток
Идентификатор кодека : DX50
Идентификатор кодека/Подсказка : DivX 5
Продолжительность : 1 ч. 43 м.
Битрейт : 1369 Кбит/сек
Ширина : 704 пикселя
Высота : 400 пикселей
Соотношение сторон : 16:9
Частота кадров : 25,000 кадров/сек
Цветовое пространство : YUV
Субдискретизация насыщенности : 4:2:0
Битовая глубина : 8 бит
Тип развёртки : Прогрессивная
Метод сжатия : С потерями
Бит/(Пиксели*Кадры) : 0.195
Размер потока : 1016 Мбайт (91%)
Заголовок : Video
Библиотека кодирования : DivX 3013
Аудио
Идентификатор : 1
Формат : MPEG Audio
Версия формата : Version 1
Профиль формата : Layer 3
Идентификатор кодека : 55
Идентификатор кодека/Подсказка : MP3
Продолжительность : 1 ч. 43 м.
Вид битрейта : Постоянный
Битрейт : 128 Кбит/сек
Каналы : 2 канала
Частота : 44,1 КГц
Метод сжатия : С потерями
Размер потока : 95,0 Мбайт (8%)
Выравнивание : Разделение по промежуткам
Продолжительность промежутка : 40 мс. (1,00 видеокадр)
Время предзагрузки промежутка : 500 мс.
Заголовок : Audio

Скриншоты


Альтернативный хост





Показать сообщения:    

Текущее время: 05-Дек 23:40

Часовой пояс: UTC + 3


Вы не можете начинать темы
Вы не можете отвечать на сообщения
Вы не можете редактировать свои сообщения
Вы не можете удалять свои сообщения
Вы не можете голосовать в опросах
Вы не можете прикреплять файлы к сообщениям
Вы не можете скачивать файлы