Конармия (Сергей Линков) [2013 г., США, моноспектакль, WEB-DLRip]


 

[Цитировать]

КонармияСтрана: США .
Жанр: моноспектакль.
Год выпуска: 2013.
Продолжительность: 01:13:39.
Язык: Русский.
Режиссер: Сергей Линков.
Исполняет:
Конармеец Лютов - Борис Фурман.
О спектакле:
По рассказам и дневникам Исаака Бабеля: "Вечер", "Письмо", "Эскадронный Трунов", "Продолжение истории одной лошади", "Соль", "Солнце Италии", "Вдова", Эпилог "История любви", книге Антонины Пирожковой "7 лет с Бабелем".
Дополнительная информация:
Выпущено: Босфильм и Центр МАКОР.
Авторы: Исаак Бабель, Антонина Пирожкова.
Инсценировка и постановка: Сергей Линков.
Художники: Ксения и Джозеф Магвайер.
Звук: Анатолий Гринберг, Лилия Левитина.
Свет: Игорь Шехтман, Владимир Фойгельман.
Видеозапись: Михаил Брусиловский.
Релиз
Рип sharky.

Качество видео:...WEB-DLRip
Формат:.................AVI
Видео:..704x400 (1.76:1), 25 fps, XviD build 50 ~2071 kbps avg, 0.29 bit/pixel
Аудио:..48 kHz, AC3 Dolby Digital, 2/0 (L,R) ch, ~192 kbps

Отчет Media Info

General
Complete name : Konarmiya_monospektakl'_Boris_Furman.2013.XviD.WEB-DLRip.fenixclub.avi
Формат : AVI
Формат/Информация : Audio Video Interleave
Размер файла : 1,17 Гбайт
Продолжительность : 1 ч. 13 м.
Общий поток : 2273 Кбит/сек
Программа кодирования : VirtualDubMod 1.5.10.3 | www.virtualdub-fr.org || (build 2550/release)
Библиотека кодирования : VirtualDubMod build 2550/release
Видео
Идентификатор : 0
Формат : MPEG-4 Visual
Профиль формата : Advanced Simple@L5
Параметр BVOP формата : 1
Параметр QPel формата : Нет
Параметр GMC формата : Без точки перехода
Параметр матрицы формата : Default (H.263)
Идентификатор кодека : XVID
Идентификатор кодека/Подсказка : XviD
Продолжительность : 1 ч. 13 м.
Битрейт : 2072 Кбит/сек
Ширина : 704 пикселя
Высота : 400 пикселей
Соотношение сторон : 16:9
Частота кадров : 25,000 кадров/сек
Цветовое пространство : YUV
Субдискретизация насыщенности : 4:2:0
Битовая глубина : 8 бит
Тип развёртки : Прогрессивная
Метод сжатия : С потерями
Бит/(Пиксели*Кадры) : 0.294
Размер потока : 1,07 Гбайт (91%)
Библиотека кодирования : XviD 1.2.1 (UTC 2008-12-04)
Аудио
Идентификатор : 1
Формат : AC-3
Формат/Информация : Audio Coding 3
Расширение режима : CM (complete main)
Параметр Endianness формата : Big
Идентификатор кодека : 2000
Продолжительность : 1 ч. 13 м.
Вид битрейта : Постоянный
Битрейт : 192 Кбит/сек
Каналы : 2 канала
Расположение каналов : Front: L R
Частота : 48,0 КГц
Битовая глубина : 16 бит
Метод сжатия : С потерями
Размер потока : 101 Мбайт (8%)
Выравнивание : Разделение по промежуткам
Продолжительность промежутка : 40 мс. (1,00 видеокадр)
Время предзагрузки промежутка : 500 мс.

Скриншоты

Альтернативный хост




Показать сообщения:    

Текущее время: 10-Дек 23:32

Часовой пояс: UTC + 3


Вы не можете начинать темы
Вы не можете отвечать на сообщения
Вы не можете редактировать свои сообщения
Вы не можете удалять свои сообщения
Вы не можете голосовать в опросах
Вы не можете прикреплять файлы к сообщениям
Вы не можете скачивать файлы