Серсо (Владимир Агеев) [2014 г., драма, SATRip] Другой театр


 

[Цитировать]

СерсоНазвание театра: Другой театр.
Год выпуска: 2014.
Жанр: драма.
Продолжительность: 02:12:48.
Режиссер: Владимир Агеев.
В ролях:
Александр Усов, Ирина Гринева, Ольга Прихудайлова, Арина Маракулина, Алексей Багдасаров, Григорий Данцигер, Алексей Дубровский, Михаил Горский, Максим Федоров (баянист).
О спектакле:
Легендарную пьесу Виктора Славкина "Серсо", про навсегда покидающих старый дом людей, все знают и высоко ценят, но не ставят. Дело в том, что в 1985 году ее поставил Анатолий Васильев - и поставил так, что до сих пор все вспоминают. И вот на постановку этой пьесы решился один из учеников мастера - Владимир Агеев.
В загородный дом на выходные приезжает компания сорокалетних людей, по-разному знакомых и незнакомых друг с другом. Они готовы поехать куда угодно, лишь бы сбежать от своего одиночества. Идея поселиться в этом доме поначалу кажется им абсурдной, и никто не воспринимает её всерьез. Люди приехали просто отдохнуть. И вот они надевают старинные платья и костюмы, разыгрывая исторические сценки. Они играют в забытую игру "серсо", читают найденные в шкатулке старые письма, и перед зрителем раскрывается давно минувшая эпоха.
Стремясь вырваться из повседневности и одиночества, герои пьесы увлекаются игрой в прошлое. Размышления о прожитом, сравнения разных судеб и желание спрятаться в своём идеальном мирке. Постепенно их круг становится теснее, они становятся откровеннее и ближе друг другу. И, может еще не окончательно, но всё же начинает появляться что-то общее между ними. Пока это только желание делиться мыслями и воспоминаниями, но для них и это - уже большой шаг.

Дополнительная информация:
Страна: Россия .
Выпущено: © Телеканал "Театр".
Автор: Виктор Славкин.

О спектакле.
Релиз
Огромное спасибо Доброму человеку за предоставленый материал!!!

Качество видео:...SATRip
Формат:.................AVI
Видео:..720x400 (1.80:1), 25 fps, XviD MPEG-4 ~1431 kbps avg, 0.20 bit/pixel
Аудио:..48 kHz, MPEG Layer 3, 2 ch, ~128.00 kbps avg

Отчет Media Info

General
Complete name : Serso_Drugoj.teatr.2014.XviD.SATRip.fenixclub.avi
Формат : AVI
Формат/Информация : Audio Video Interleave
Размер файла : 1,46 Гбайт
Продолжительность : 2 ч. 12 м.
Общий поток : 1570 Кбит/сек
Программа кодирования : VirtualDubModRus 1.5.10.2 (build 2542/release)
Библиотека кодирования : VirtualDub build 34753/release
Видео
Идентификатор : 0
Формат : MPEG-4 Visual
Профиль формата : Advanced Simple@L5
Параметр BVOP формата : 2
Параметр QPel формата : Нет
Параметр GMC формата : Без точки перехода
Параметр матрицы формата : Default (H.263)
Режим смешивания : Сжатый битовый поток
Идентификатор кодека : XVID
Идентификатор кодека/Подсказка : XviD
Продолжительность : 2 ч. 12 м.
Битрейт : 1432 Кбит/сек
Ширина : 720 пикселей
Высота : 400 пикселей
Соотношение сторон : 16:9
Частота кадров : 25,000 кадров/сек
Цветовое пространство : YUV
Субдискретизация насыщенности : 4:2:0
Битовая глубина : 8 бит
Тип развёртки : Прогрессивная
Метод сжатия : С потерями
Бит/(Пиксели*Кадры) : 0.199
Размер потока : 1,33 Гбайт (91%)
Библиотека кодирования : XviD 1.2.1 (UTC 2008-12-04)
Аудио
Идентификатор : 1
Формат : MPEG Audio
Версия формата : Version 1
Профиль формата : Layer 3
Режим : Joint stereo
Идентификатор кодека : 55
Идентификатор кодека/Подсказка : MP3
Продолжительность : 2 ч. 12 м.
Вид битрейта : Постоянный
Битрейт : 128 Кбит/сек
Каналы : 2 канала
Частота : 48,0 КГц
Метод сжатия : С потерями
Размер потока : 122 Мбайт (8%)
Выравнивание : Разделение по промежуткам
Продолжительность промежутка : 40 мс. (1,00 видеокадр)
Время предзагрузки промежутка : 500 мс.

Скриншот с названием постановки

Скриншоты


Альтернативный хост





Показать сообщения:    

Текущее время: 10-Дек 19:39

Часовой пояс: UTC + 3


Вы не можете начинать темы
Вы не можете отвечать на сообщения
Вы не можете редактировать свои сообщения
Вы не можете удалять свои сообщения
Вы не можете голосовать в опросах
Вы не можете прикреплять файлы к сообщениям
Вы не можете скачивать файлы