Приключение Олечки в стране людей (Анна Шелепова, Сергей Щербаков) [2013 г., Беларусь, комедия, WEB-DLRip] Заслуженный любительский коллектив Республики Беларусь студенческий театр «Арт» Полоцкого государственного университета, г. Полоцк


 

[Цитировать]

Приключение Олечки в стране людей Театр: Заслуженный любительский коллектив Республики Беларусь студенческий театр «Арт» Полоцкого государственного университета, г. Полоцк.
Страна: Беларусь .
Жанр: комедия.
Год выпуска: 2013.
Продолжительность: 01:28:09.
Язык: русский.
Режиссеры: Анна Шелепова, Сергей Щербаков.
Действующие лица и исполнители:
Олечка - Анна Чернышёва,
Анюта - Агния Плавинская,
Надя - Анастасия Щербо,
Димон - Павел Никифоров,
Света - Елена Нехай,
Люба - Анастасия Комлева,
Милена - Эльмира Машадиева,
Галина Борисовна - Виктория Матвейчук,
Влада - Кристина Леонкина,
Инга - Валерия Степанова,
Прочие люди - Эллона Аллахвердян, Юлия Булгач, Виктория Завадская, Дарья Степнова, Екатерина Тумчёнок, Светлана Тюренкова, Елизавета Ходикова.
О спектакле:
Комедия по пьесе Елизаветы Ганопольской «Чужой дом».
Представьте себе такую картину: жила себе Олечка с любящим обеспеченным мужем и детьми, горя не знала. Поехала с мужем в заграничную командировку, а вернулась одна, муж нашёл себе другую, но это за кадром.
Спектакль начинается с того, что Олечка вернулась в свою квартиру, в которой на время командировки разместились сёстры мужа. Обнаружив в квартире полный беспорядок, Олечка устроила скандал, за что была выдворена из квартиры вместе с вещами.
И тут начинается путешествие главной героини по домам своих подруг, знакомых и даже случайных людей. Попадая в очередную квартиру, - она попадала в мир её хозяйки и пыталась подстроиться под него. Пока не поняла, что надо просто быть самой собой.

Дополнительная информация:
Автор: Елизавета Ганопольская.
Релиз
Рип sharky.

Качество видео:...WEB-DLRip
Формат:.................AVI
Видео:..704x400 (1.76:1), 25 fps, XviD build 50 ~1568 kbps avg, 0.22 bit/pixel
Аудио:..48 kHz, AC3 Dolby Digital, 2/0 (L,R) ch, ~192 kbps

Отчет Media Info

General
Complete name : Priklyu4eniya.Ole4ki.v.strane.lyudej_ZLST.Art.2013.XviD.WEB-DLRip.fenixclub.avi
Формат : AVI
Формат/Информация : Audio Video Interleave
Размер файла : 1,09 Гбайт
Продолжительность : 1 ч. 28 м.
Общий поток : 1771 Кбит/сек
Программа кодирования : VirtualDubMod 1.5.10.3 | www.virtualdub-fr.org || (build 2550/release)
Библиотека кодирования : VirtualDubMod build 2550/release
Видео
Идентификатор : 0
Формат : MPEG-4 Visual
Профиль формата : Advanced Simple@L5
Параметр BVOP формата : 1
Параметр QPel формата : Нет
Параметр GMC формата : Без точки перехода
Параметр матрицы формата : Default (H.263)
Идентификатор кодека : XVID
Идентификатор кодека/Подсказка : XviD
Продолжительность : 1 ч. 28 м.
Битрейт : 1569 Кбит/сек
Ширина : 704 пикселя
Высота : 400 пикселей
Соотношение сторон : 16:9
Частота кадров : 25,000 кадров/сек
Цветовое пространство : YUV
Субдискретизация насыщенности : 4:2:0
Битовая глубина : 8 бит
Тип развёртки : Прогрессивная
Метод сжатия : С потерями
Бит/(Пиксели*Кадры) : 0.223
Размер потока : 989 Мбайт (89%)
Библиотека кодирования : XviD 1.2.1 (UTC 2008-12-04)
Аудио
Идентификатор : 1
Формат : AC-3
Формат/Информация : Audio Coding 3
Расширение режима : CM (complete main)
Параметр Endianness формата : Big
Идентификатор кодека : 2000
Продолжительность : 1 ч. 28 м.
Вид битрейта : Постоянный
Битрейт : 192 Кбит/сек
Каналы : 2 канала
Расположение каналов : Front: L R
Частота : 48,0 КГц
Битовая глубина : 16 бит
Метод сжатия : С потерями
Размер потока : 121 Мбайт (11%)
Выравнивание : Разделение по промежуткам
Продолжительность промежутка : 40 мс. (1,00 видеокадр)
Время предзагрузки промежутка : 500 мс.

Скриншоты


Альтернативный хост





Показать сообщения:    

Текущее время: 08-Дек 07:08

Часовой пояс: UTC + 3


Вы не можете начинать темы
Вы не можете отвечать на сообщения
Вы не можете редактировать свои сообщения
Вы не можете удалять свои сообщения
Вы не можете голосовать в опросах
Вы не можете прикреплять файлы к сообщениям
Вы не можете скачивать файлы