Сказка о рыбаке и рыбке А.С. Пушкина (Андрей Беркутов) [2007 г., сказка, TVRip] Государственный музей А.С. Пушкина


 

[Цитировать]

Сказка о рыбаке и рыбке А.С. Пушкина Театрально-музейный проект.
Государственный музей А.С. Пушкина.

Название театра: Государственный музей А.С. Пушкина.
Год выпуска: 2007.
Жанр: сказка.
Продолжительность: 00:57:15.
Режиссер: Андрей Беркутов.
Исполняют артисты Театра на Таганке: народный артист России Валерий Золотухин, Ирина Линдт.
О спектакле:
Главный персонаж спектакля – Рассказчик – народный артист России Валерий Золотухин, за плечами которого народная слава, известность и целая жизнь. Артист не просто читает гениальный пушкинский текст, он деликатно и к месту "прокладывает" сказочный сюжет своими воспоминаниями, делится своим жизненным опытом. Его сценическая половина – актриса Ирина Линдт ведет непростую женскую линию, перевоплощаясь то в гордую владычицу, то в покоренную рабыню, то в любимую женщину.
Дополнительная информация:
Страна: Россия .
Выпущено: Государственный музей А.С. Пушкина.
Автор: Александр Пушкин.
Художник: Александр Васильев.
Музыкальный руководитель: Максим Берестов.
Хореограф: Андрей Меланьин.
Художник по свету: Александр Кельганов.
Концертмейстер: заслуженная артистка России Людмила Пелагейченко.
В спектакле звучат романсы "Я вас любил" Фёдора Толстого, "Цветок" Валерия Патрушева, "Я помню чудное мгновенье" Михаила Глинки, "Твоих признаний, жалоб нежных" Катерино Кавоса, "Если жизнь тебя обманет" Н. Стародубского на стихи А.С. Пушкина, русская народная песня "Государь мой батюшка", песня Владимира Высоцкого «Танго-корабли».
Руководитель проекта: лауреат Государственной премии России Евгений Богатырев
Премьера спектакля состоялась: 12 мая 2007 года.

О спектакле.
Релиз

Качество видео:...TVRip
Формат:.................AVI
Видео:..640x480 (1.33:1), 24.000 fps, XviD MPEG-4 ~1638 kbps avg, 0.22 bit/pixel
Аудио:..44.100 kHz, MPEG Layer 3, 2 ch, ~128.00 kbps avg

Отчет Media Info

General
Complete name : Skazka.o.rybake.i.rybke.2007.XviD.TVRip.fenixclub.avi
Формат : AVI
Формат/Информация : Audio Video Interleave
Размер файла : 727 Мбайт
Продолжительность : 57 м.
Общий поток : 1776 Кбит/сек
Программа кодирования : VirtualDubModRus 1.5.10.2 (build 2542/release)
Библиотека кодирования : VirtualDubMod build 2542/release
Видео
Идентификатор : 0
Формат : MPEG-4 Visual
Профиль формата : Advanced Simple@L5
Параметр BVOP формата : 2
Параметр QPel формата : Нет
Параметр GMC формата : Без точки перехода
Параметр матрицы формата : Default (H.263)
Режим смешивания : Сжатый битовый поток
Идентификатор кодека : XVID
Идентификатор кодека/Подсказка : XviD
Продолжительность : 57 м.
Битрейт : 1639 Кбит/сек
Ширина : 640 пикселей
Высота : 480 пикселей
Соотношение сторон : 4:3
Частота кадров : 24,000 кадра/сек
Цветовое пространство : YUV
Субдискретизация насыщенности : 4:2:0
Битовая глубина : 8 бит
Тип развёртки : Прогрессивная
Метод сжатия : С потерями
Бит/(Пиксели*Кадры) : 0.222
Размер потока : 671 Мбайт (92%)
Библиотека кодирования : XviD 1.2.1 (UTC 2008-12-04)
Аудио
Идентификатор : 1
Формат : MPEG Audio
Версия формата : Version 1
Профиль формата : Layer 3
Идентификатор кодека : 55
Идентификатор кодека/Подсказка : MP3
Продолжительность : 57 м.
Вид битрейта : Постоянный
Битрейт : 128 Кбит/сек
Каналы : 2 канала
Частота : 44,1 КГц
Метод сжатия : С потерями
Размер потока : 52,4 Мбайт (7%)
Выравнивание : Разделение по промежуткам
Продолжительность промежутка : 42 мс. (1,00 видеокадр)
Время предзагрузки промежутка : 500 мс.
Библиотека кодирования : LAME3.99r
Настройки программы : -m s -V 4 -q 2 -lowpass 17 -b 128

Скриншоты

Альтернативный хост




Показать сообщения:    

Текущее время: 05-Дек 01:25

Часовой пояс: UTC + 3


Вы не можете начинать темы
Вы не можете отвечать на сообщения
Вы не можете редактировать свои сообщения
Вы не можете удалять свои сообщения
Вы не можете голосовать в опросах
Вы не можете прикреплять файлы к сообщениям
Вы не можете скачивать файлы