Про добро и зло, и про длинный язык (Борис Смирнов, Л. Сурикова) [1990 г., сказка, TVRip] Донецкий академический областной театр кукол


 

[Цитировать]

Про добро и зло, и про длинный языкНазвание театра: Донецкий академический областной театр кукол.
Жанр: сказка.
Год выпуска: 1990.
Продолжительность: 00:56:00.
Режиссер: заслуженный артист УССР Борис Смирнов, Л. Сурикова.
В ролях: Л. Тушканова, В. Малеванный, Ж. Славская, Е. Липина, А. Семушина, М. Загной, В. Мигин.
Роли озвучивали: Т.Божок, А.Лущик, Н. Ромашенко, Р. Суховерко, А. Борзунов, Л. Гнилова, П. Иванов.
Описание:
По мотивам армянских народных сказок.
Яркий национальный колорит, прекрасный литературный язык и занимательный сюжет пьесы Нелли Осиповой переносят нас в старинную армянскую деревню. Философский смысл сказки, заключенный в том, что слабость человеческая, над которой мы обычно снисходительно посмеиваемся, может при определенных обстоятельствах принести горе. По вине длинного языка Осан погибло прекрасное волшебное абрикосовое дерево. Поняв свою вину, она научится "держать язык за зубами", а Хачатур со своей внучкой Сатик смогут вырастить абрикосовое дерево из волшебной косточки, выброшенной Арэгом.

Дополнительная информация:
Страна: СССР .
Выпущено: Донецкий академический областной театр кукол, Союзтелефильм.
Режиссер: заслуженный артист УССР Борис Смирнов.
Автор: Нелли Осипова.
Художник: Н. Ясницкий.
Композитор: Я. Липовецкий.
Режиссер телеверсии: Л. Сурикова.
Операторы: В. Шевалев, И. Гриднев.

Релиз

Качество: TVRip
Формат: AVI
Видео:..704x528 (1.33:1), 25 fps, XviD MPEG-4 ~1609 kbps avg, 0.17 bit/pixel
Аудио:..48 kHz, MPEG Layer 3, 2 ch, ~128.00 kbps avg

Отчет Media Info

Общее
Полное имя : Pro.dobro.i.zlo.1990.XviD.TVRip.fenixclub.avi
Формат : AVI
Формат/Информация : Audio Video Interleave
Размер файла : 700 Мбайт
Продолжительность : 56 м.
Общий поток : 1748 Кбит/сек
Программа кодирования : VirtualDubModRus 1.5.10.2 (build 2542/release)
Библиотека кодирования : VirtualDub build 32842/release
Видео
Идентификатор : 0
Формат : MPEG-4 Visual
Профиль формата : Advanced Simple@L5
Параметр BVOP формата : 2
Параметр QPel формата : Нет
Параметр GMC формата : Без точки перехода
Параметр матрицы формата : Default (H.263)
Режим смешивания : Сжатый битовый поток
Идентификатор кодека : XVID
Идентификатор кодека/Подсказка : XviD
Продолжительность : 56 м.
Битрейт : 1610 Кбит/сек
Ширина : 704 пикселя
Высота : 528 пикселей
Соотношение сторон : 4:3
Частота кадров : 25,000 кадров/сек
Цветовое пространство : YUV
Субдискретизация насыщенности : 4:2:0
Битовая глубина : 8 бит
Тип развёртки : Прогрессивная
Метод сжатия : С потерями
Бит/(Пиксели*Кадры) : 0.173
Размер потока : 645 Мбайт (92%)
Библиотека кодирования : XviD 1.2.1 (UTC 2008-12-04)
Аудио
Идентификатор : 1
Формат : MPEG Audio
Версия формата : Version 1
Профиль формата : Layer 3
Режим : Joint stereo
Расширение режима : MS Stereo
Идентификатор кодека : 55
Идентификатор кодека/Подсказка : MP3
Продолжительность : 56 м.
Вид битрейта : Постоянный
Битрейт : 128 Кбит/сек
Каналы : 2 канала
Частота : 48,0 КГц
Метод сжатия : С потерями
Размер потока : 51,3 Мбайт (7%)
Выравнивание : Разделение по промежуткам
Продолжительность промежутка : 40 мс. (1,00 видеокадр)
Время предзагрузки промежутка : 500 мс.

Скриншоты

Альтернативный хост




Показать сообщения:    

Текущее время: 07-Дек 19:27

Часовой пояс: UTC + 3


Вы не можете начинать темы
Вы не можете отвечать на сообщения
Вы не можете редактировать свои сообщения
Вы не можете удалять свои сообщения
Вы не можете голосовать в опросах
Вы не можете прикреплять файлы к сообщениям
Вы не можете скачивать файлы