...bravo, russo!.. (Елена Бутенко-Райкина) [2014 г., драма, SATRip] Школа-студия МХАТ


 

[Цитировать]

...bravo, russo!..Название театра: Школа-студия МХАТ, Мастерская Константина Райкина.
Жанр: драма.
Год выпуска: 2014.
Продолжительность: 02:26:45.
Режиссер-педагог: Елена Бутенко-Райкина.
Действующие лица и исполнители:
Рассказчик и К* - Никита Смольянинов,
Дмитрий Санин - Илья Денискин,
Джемма - Илона Гайшун, Анастасия Пронина,
Фрау Леноре - Анна Даукаева,
Панталеоне - Андрей Поляков,
Эмилио - Владимир Надеин,
Луиза, Тарталья - Наталья Качалова,
Клюбер - Владимир Андриянов,
Фон Донгоф - Дмитрий Смирнов,
Фон Рихтер - Игорь Бычков,
Ипполит Сидорович Полозов - Руслан Сабиров,
Марья Николаевна Полозова - Наталья Качалова.
Описание:
По повести Ивана Сергеевича Тургенева "Вешние воды".
"...Bravo, Russo!.." - история о выборе пути. Спектакль рассказывает о том, как вроде бы незначительный поступок влечет за собой настоящую лавину личных несчастий и катастроф. При этом не имеет значения, совершен ли неверный поступок по злому умыслу или из-за легкомыслия. Его результатом все равно становится пущенная под откос жизнь. Но есть в спектакле кое-что еще – светлый финал. Залогом этого финала и надежды на лучшее будущее становится раскаяние. Именно поэтому спектакль кажется светлым и жизнеутверждающим, хотя и с горьковатым привкусом.

Дополнительная информация:
Страна: Россия .
Выпущено: © Телеканал "Театр".
Автор: Иван Тургенев.
Художник: Анжелика Бажина.
В спектакле использована музыка: Петра Ильича Чайковского, Фредерика Шопена, Иоана Себастьяна Баха, Вольфганга Амадея Моцарта, Михаила Ивановича Глинки, Николая Андреевича Римского-Корсакова, Макса Дворжака, Е. Чичеро, Франца Шуберта, М. Роттера, А. Минео, вальсы и народная немецкая, русская и итальянская музыка.
Руководитель курса: Константин Райкин.

О спектакле.
Релиз
Огромное спасибо Доброму человеку за предоставленый материал!!!

Качество: SATRip
Формат: AVI
Видео:..720x400 (1.80:1), 25 fps, XviD MPEG-4 ~1252 kbps avg, 0.17 bit/pixel
Аудио:..48 kHz, MPEG Layer 3, 2 ch, ~128.00 kbps avg

Отчет Media Info

Общее
Полное имя : bravo.russo_Shkola.studiya.MHAT.2014.XviD.SATRip.fenixclub.avi
Формат : AVI
Формат/Информация : Audio Video Interleave
Размер файла : 1,43 Гбайт
Продолжительность : 2 ч. 26 м.
Общий поток : 1391 Кбит/сек
Библиотека кодирования : VirtualDub build 34753/release
Видео
Идентификатор : 0
Формат : MPEG-4 Visual
Профиль формата : Advanced Simple@L5
Параметр BVOP формата : 2
Параметр QPel формата : Нет
Параметр GMC формата : Без точки перехода
Параметр матрицы формата : Default (H.263)
Режим смешивания : Сжатый битовый поток
Идентификатор кодека : XVID
Идентификатор кодека/Подсказка : XviD
Продолжительность : 2 ч. 26 м.
Битрейт : 1253 Кбит/сек
Ширина : 720 пикселей
Высота : 400 пикселей
Соотношение сторон : 16:9
Частота кадров : 25,000 кадров/сек
Цветовое пространство : YUV
Субдискретизация насыщенности : 4:2:0
Битовая глубина : 8 бит
Тип развёртки : Прогрессивная
Метод сжатия : С потерями
Бит/(Пиксели*Кадры) : 0.174
Размер потока : 1,28 Гбайт (90%)
Библиотека кодирования : XviD 1.2.1 (UTC 2008-12-04)
Аудио
Идентификатор : 1
Формат : MPEG Audio
Версия формата : Version 1
Профиль формата : Layer 3
Режим : Joint stereo
Расширение режима : MS Stereo
Идентификатор кодека : 55
Идентификатор кодека/Подсказка : MP3
Продолжительность : 2 ч. 26 м.
Вид битрейта : Постоянный
Битрейт : 128 Кбит/сек
Каналы : 2 канала
Частота : 48,0 КГц
Метод сжатия : С потерями
Размер потока : 134 Мбайт (9%)
Выравнивание : Разделение по промежуткам
Продолжительность промежутка : 40 мс. (1,00 видеокадр)
Время предзагрузки промежутка : 500 мс.

Скриншоты

Альтернативный хост




Показать сообщения:    

Текущее время: 08-Дек 07:06

Часовой пояс: UTC + 3


Вы не можете начинать темы
Вы не можете отвечать на сообщения
Вы не можете редактировать свои сообщения
Вы не можете удалять свои сообщения
Вы не можете голосовать в опросах
Вы не можете прикреплять файлы к сообщениям
Вы не можете скачивать файлы