Боян. Великое русское слово (Анатолий Пилюгин) [2012 г., Литературно-музыкальная композиция, гала-концерт, SATRip]


 

[Цитировать]

Боян. Великое русское словоГод выпуска: 2012.
Жанр: Литературно-музыкальная композиция, гала-концерт.
Продолжительность: 02:12:34.
Режиссеры: заслуженный работник культуры России Анатолий Пилюгин, Ирина Доценко
Автор и ведущий: Святослав Бэлза.
Исполнители стихов:
Василий Лановой, Алексей Кузнецов, Ирина Крутова.
Государственный академический русский концертный оркестр "БОЯН"
Художественный руководитель и Главный дирижер:
народный артист СССР Анатолий Полетаев.
Описание:
Проект "Великое русское слово" побывал с концертами почти на всех континентах нашей Земли. Этим гала-концертом проект отмечает свое 15-летие.
В программе:
А.С. Пушкин "Метель",
Песни и стихи на военную тему,
А.П. Чехов "Дипломат".
Дополнительная информация:
Запись из Театрально-концертного зала "Дворец на Яузе".
Страна: Россия .
Выпущено: © ООО "Альма Матер".
Режиссер концерта: заслуженный работник культуры России Анатолий Пилюгин.
Директор оркестра и руководитель проекта: Иван Шрамков.
Режиссер телеверсии: Ирина Доценко.
Операторы: Вячеслав Рязанов, Михаил Кожевников, Олег Теодорович, Александр Савин.
Релиз
Огромное спасибо Дброму человеку за предоставленый материал!!!
Качество видео:...SATRip
Формат:.................AVI
Видео:..640x480 (1.33:1), 25 fps, XviD MPEG-4 ~1334 kbps avg, 0.17 bit/pixel
Аудио:..48 kHz, MPEG Layer 3, 2 ch, ~128.00 kbps avg

Отчет MI

General
Complete name : Boyan.Velikoe.russkoe.slovo.2012.XviD.SATRip.fenixlub.avi
Формат : AVI
Формат/Информация : Audio Video Interleave
Размер файла : 1,36 Гбайт
Продолжительность : 2 ч. 12 м.
Общий поток : 1472 Кбит/сек
Библиотека кодирования : VirtualDub build 34753/release
Видео
Идентификатор : 0
Формат : MPEG-4 Visual
Профиль формата : Advanced Simple@L5
Параметр BVOP формата : 2
Параметр QPel формата : Нет
Параметр GMC формата : Без точки перехода
Параметр матрицы формата : Default (H.263)
Режим смешивания : Сжатый битовый поток
Идентификатор кодека : XVID
Идентификатор кодека/Подсказка : XviD
Продолжительность : 2 ч. 12 м.
Битрейт : 1334 Кбит/сек
Ширина : 640 пикселей
Высота : 480 пикселей
Соотношение сторон : 4:3
Частота кадров : 25,000 кадров/сек
Цветовое пространство : YUV
Субдискретизация насыщенности : 4:2:0
Битовая глубина : 8 бит
Тип развёртки : Прогрессивная
Метод сжатия : С потерями
Бит/(Пиксели*Кадры) : 0.174
Размер потока : 1,24 Гбайт (91%)
Библиотека кодирования : XviD 1.2.1 (UTC 2008-12-04)
Аудио
Идентификатор : 1
Формат : MPEG Audio
Версия формата : Version 1
Профиль формата : Layer 3
Режим : Joint stereo
Расширение режима : MS Stereo
Идентификатор кодека : 55
Идентификатор кодека/Подсказка : MP3
Продолжительность : 2 ч. 12 м.
Вид битрейта : Постоянный
Битрейт : 128 Кбит/сек
Каналы : 2 канала
Частота : 48,0 КГц
Метод сжатия : С потерями
Размер потока : 121 Мбайт (9%)
Выравнивание : Разделение по промежуткам
Продолжительность промежутка : 40 мс. (1,00 видеокадр)
Время предзагрузки промежутка : 500 мс.

Скриншоты

Альтернативный хост




Показать сообщения:    

Текущее время: 08-Дек 10:56

Часовой пояс: UTC + 3


Вы не можете начинать темы
Вы не можете отвечать на сообщения
Вы не можете редактировать свои сообщения
Вы не можете удалять свои сообщения
Вы не можете голосовать в опросах
Вы не можете прикреплять файлы к сообщениям
Вы не можете скачивать файлы