Игра в джин (Зураб Нанобашвили) [2013 г., Трагикомедия, SATRip] Вологодский драматический театр


 

[Цитировать]

Игра в джинНазвание театра: Вологодский драматический театр.
Жанр: Трагикомедия.
Год выпуска: 2013.
Продолжительность: 01:04:40.
Режиссер: Зураб Нанобашвили.
Действующие лица и исполнители:
Уэллер - народный артист России Леонид Рудой,
Фонсиа - заслуженная артистка России Светлана Трубина,
Пианистка - Дина Бортник.
Ведет спектакль: Галина Поздняк.
О спектакле:
Двое пожилых людей - Уэллер и Фонсия - оказавшиеся в доме для престарелых, брошенные и забытые детьми, ищут спасения от одиночества в необыкновенно азартной карточной игре "джин". В бесконечных спорах и ссорах рождается привязанность друг к другу. Смешная и трогательная история двух одиноких стариков.
Дополнительная информация:
Страна: Россия .
Выпущено: © Телеканал "Театр".
Автор: Дональд Лее Кобурн.
Перевод с английского: Майя Гордеева.
Сценическая редакция и постановка: Зураб Нанобашвили.
Художник-постановщик: Виктор Рубинштейн.
Музыкальное оформление: Дина Бортник.
Художественный руководитель: Зураб Нанобашвили.
Премьера состоялась в феврале 2006 года на малой сцене.

Релиз
Огромное спасибо Доброму человеку за предоставленый материал!!!

Качество видео:...SATRip
Формат:.................AVI
Видео:..720x544 (1.32:1), 25 fps, XviD MPEG-4 ~1469 kbps avg, 0.15 bit/pixel
Аудио:..48 kHz, MPEG Layer 3, 2 ch, ~128.00 kbps avg

Отчет Media Info

General
Complete name : Igra.v.dzhin_Vologodskij.dramteatr.2013.XviD.SATRip.fenixclub.avi
Формат : AVI
Формат/Информация : Audio Video Interleave
Размер файла : 744 Мбайт
Продолжительность : 1 ч. 4 м.
Общий поток : 1608 Кбит/сек
Программа кодирования : VirtualDubModRus 1.5.10.2 (build 2542/release)
Библиотека кодирования : VirtualDub build 32842/release
Видео
Идентификатор : 0
Формат : MPEG-4 Visual
Профиль формата : Advanced Simple@L5
Параметр BVOP формата : 2
Параметр QPel формата : Нет
Параметр GMC формата : Без точки перехода
Параметр матрицы формата : Default (H.263)
Режим смешивания : Сжатый битовый поток
Идентификатор кодека : XVID
Идентификатор кодека/Подсказка : XviD
Продолжительность : 1 ч. 4 м.
Битрейт : 1470 Кбит/сек
Ширина : 720 пикселей
Высота : 544 пикселя
Соотношение сторон : 4:3
Частота кадров : 25,000 кадров/сек
Цветовое пространство : YUV
Субдискретизация насыщенности : 4:2:0
Битовая глубина : 8 бит
Тип развёртки : Прогрессивная
Метод сжатия : С потерями
Бит/(Пиксели*Кадры) : 0.150
Размер потока : 680 Мбайт (91%)
Библиотека кодирования : XviD 1.2.1 (UTC 2008-12-04)
Аудио
Идентификатор : 1
Формат : MPEG Audio
Версия формата : Version 1
Профиль формата : Layer 3
Режим : Joint stereo
Расширение режима : MS Stereo
Идентификатор кодека : 55
Идентификатор кодека/Подсказка : MP3
Продолжительность : 1 ч. 4 м.
Вид битрейта : Постоянный
Битрейт : 128 Кбит/сек
Каналы : 2 канала
Частота : 48,0 КГц
Метод сжатия : С потерями
Размер потока : 59,2 Мбайт (8%)
Выравнивание : Разделение по промежуткам
Продолжительность промежутка : 40 мс. (1,00 видеокадр)
Время предзагрузки промежутка : 500 мс.
Библиотека кодирования : LAME3.99.5

Скриншоты

Альтернативный хост




Показать сообщения:    

Текущее время: 04-Дек 06:48

Часовой пояс: UTC + 3


Вы не можете начинать темы
Вы не можете отвечать на сообщения
Вы не можете редактировать свои сообщения
Вы не можете удалять свои сообщения
Вы не можете голосовать в опросах
Вы не можете прикреплять файлы к сообщениям
Вы не можете скачивать файлы