Много шума из ничего (Евгений Писарев) [2013 г., комедия, SATRip] Московский драматический театр им. А.С.Пушкина


 

[Цитировать]

Много шума из ничегоНазвание театра: Московский драматический театр им. А.С.Пушкина.
Жанр: комедия.
Год выпуска: 2013.
Продолжительность: 02:16:12.
Режиссер: заслуженный артист России Евгений Писарев.
Действующие лица и исполнители:
Дон Педро - Валерий Панков
Дон Джон - Антон Феоктистов
Клавдио - Владимир Жеребцов
Бенедикт - Александр Арсентьев
Леонато - Андрей Заводюк
Беатриче - Александра Урсуляк
Геро - Анна Бегунова
Антонио - Константин Похмелов
Борачио - Владимир Моташнев
Конрад - Алексей Рахманов
Брат Франциск - Алексей Воропанов
Балтазар - Евгений Плиткин
Старший пристав - Сергей Миллер
Младший пристав - Игорь Теплов
Секретарь - Александр Анисимов
Маргарэт - Анастасия Лебедева
Урсула - Мария Андреева-Яворская.
В спектакле принимает участие группа "W/".
Описание:
В спектакле Евгения Писарева история о двух любовных парах, одна из которых стала жертвой заговора, а другая – розыгрыша, звучит на остром современном языке, подчеркивающем откровенную чувственную природу взаимоотношений между молодыми людьми, которой пронизана шекспировская комедия. Впрочем, слово "комедия" в обычном понимании здесь не совсем уместно: это только кажется, что шум был из ничего, кажется потом, когда все уже позади и остаются только смутные воспоминания о том, как легко могло выскользнуть из рук героев такое близкое счастье.
Герои "Много шума…" идеально вписываются в современный мир – романтикой военного братства, коварством завистливых неудачников, вечной женской болтовней про удачное и неудачное замужество, буйством гормонов молодых влюбленных, дурманящими ум вечеринками, где рождаются слухи и плетутся интриги и, наконец, свадьбой, которая во все времена невозможна без происшествий.

Дополнительная информация:
Страна: Россия .
Выпущено: Московский драматический театр им. А.С.Пушкина, © Правительство Москвы.
Автор: Уильям Шекспир.
Перевод: Екатерина Ракитина.
Сценография: Зиновий Марголин.
Композитор: Михаил Морсков.
Хореография: Альберт Албертс.
Костюмы: заслуженная артистка России Виктория Севрюкова.
Свет: заслуженный деятель искусств России Дамир Исмагилов.
Премьера спектакля состоялась 22 апреля 2011 года.

О спектакле.
Релиз

Качество: SATRip
Формат: AVI
Видео:..720x400 (1.80:1), 25 fps, XviD MPEG-4 ~1395 kbps avg, 0.19 bit/pixel
Аудио:..44.100 kHz, MPEG Layer 3, 2 ch, ~128.00 kbps avg

Отчет Media Info

Общее
Полное имя : Mnogo.shuma.iz.nichego_MDT.im.Pushkina.2013.XviD.SATRip.fenixclub.avi
Формат : AVI
Формат/Информация : Audio Video Interleave
Размер файла : 1,46 Гбайт
Продолжительность : 2 ч. 16 м.
Общий поток : 1533 Кбит/сек
Программа кодирования : VirtualDubModRus 1.5.10.2 (build 2542/release)
Библиотека кодирования : VirtualDub build 34753/release
Видео
Идентификатор : 0
Формат : MPEG-4 Visual
Профиль формата : Advanced Simple@L5
Параметр BVOP формата : 2
Параметр QPel формата : Нет
Параметр GMC формата : Без точки перехода
Параметр матрицы формата : Default (H.263)
Режим смешивания : Сжатый битовый поток
Идентификатор кодека : XVID
Идентификатор кодека/Подсказка : XviD
Продолжительность : 2 ч. 16 м.
Битрейт : 1396 Кбит/сек
Ширина : 720 пикселей
Высота : 400 пикселей
Соотношение сторон : 16:9
Частота кадров : 25,000 кадров/сек
Цветовое пространство : YUV
Субдискретизация насыщенности : 4:2:0
Битовая глубина : 8 бит
Тип развёртки : Прогрессивная
Метод сжатия : С потерями
Бит/(Пиксели*Кадры) : 0.194
Размер потока : 1,33 Гбайт (91%)
Библиотека кодирования : XviD 1.2.1 (UTC 2008-12-04)
Аудио
Идентификатор : 1
Формат : MPEG Audio
Версия формата : Version 1
Профиль формата : Layer 3
Режим : Joint stereo
Расширение режима : MS Stereo
Идентификатор кодека : 55
Идентификатор кодека/Подсказка : MP3
Продолжительность : 2 ч. 16 м.
Вид битрейта : Постоянный
Битрейт : 128 Кбит/сек
Каналы : 2 канала
Частота : 44,1 КГц
Метод сжатия : С потерями
Размер потока : 125 Мбайт (8%)
Выравнивание : Разделение по промежуткам
Продолжительность промежутка : 40 мс. (1,00 видеокадр)
Время предзагрузки промежутка : 500 мс.
Библиотека кодирования : LAME3.99.5

Скриншоты с названием постановки

Скриншоты


Альтернативный хост





Показать сообщения:    

Текущее время: 03-Дек 20:46

Часовой пояс: UTC + 3


Вы не можете начинать темы
Вы не можете отвечать на сообщения
Вы не можете редактировать свои сообщения
Вы не можете удалять свои сообщения
Вы не можете голосовать в опросах
Вы не можете прикреплять файлы к сообщениям
Вы не можете скачивать файлы