Летучий корабль (Тереза Дурова) [2013, Мюзикл для всей семьи, SATRip] «Театриум на Серпуховке»


 

[Цитировать]

Летучий корабль (2 отделения)Название театра: «Театриум на Серпуховке».
Год выпуска: 2013.
Жанр: Мюзикл для всей семьи.
Продолжительность: 00:38:07 + 00:40:56 (01:19:03).
Режиссеры: народная артистка России Тереза Дурова, Владимир Ананьев, Елена Черняк.
Действующие лица и исполнители:
Иван - Евгений Мишечкин,
Забава - Анастасия Тюкова,
Царь - заслуженный артист России Борис Рывкин,
Водяной - Андрей Ермохин,
Полкан - Сергей Дик,
Медведь - Николай Зверев,
Лягушки - Юлия Андриянова, Наталья Самсонова, Юлия Юнушева, Оксана Варняга,
Бабки-Ёжки - Александра Скоринова, Ольга Надуваева, Юлия Юнушева, Дарья Коршунова, Евгений Казанцев, Анастасия Тюкова, Юлия Андриянова, Виолетта Бучинская, Наталья Самсонова, Оксана Варняга, Адриана Садковская, Арсений Краковский, Елена Астафьева,
Горожане - Евгений Казанцев, Мамука Заркуа, Арсений Краковский,
Горожанки - Юлия Андриянова, Александра Скоринова, Ольга Надуваева, Юлия Юнушева, Дарья Коршунова, Адриана Садковская, Виолетта Бучинская, Наталья Самсонова, Оксана Варняга, Елена Астафьева,
Инструменты - Борис Рывкин, Евгений Казанцев, Виолетта Бучинская, Арсений Краковский.
О спектакле:
"Летучий корабль" – чудесная сказка о любви и о трудностях, преодолеваемых на пути к безоблачному счастью. Кто не мечтал построить свой летучий корабль, со временем ставший символом успеха, лучшей жизни и самореализации!
В спектакле есть всё, что так дорого зрителям: милые сердцу герои, красочные декорации, роскошные костюмы, невероятно красивая история и увлекательные повороты сюжета. Но главное - песни на музыку Максима Дунаевского и слова Юрия Энтина, такие добрые и любимые: романс Забавы
"Ах, если бы сбылась моя мечта…", частушки Бабок Ёжек "Развернись, душа, гармошкой! Эх, давай наяривай…", романс тоскующего Водяного "Я - водяной, я - водяной, никто не водится со мной, а все мои подружки - пиявки да лягушки" и много других мелодий. Едва ли найдется тот, кто не напевал их в детстве.
Сам мультфильм достаточно короткий, и, чтобы сделать по его мотивам большой и интересный спектакль, сочинены новые песни, продуманы сценические решения - ведь мюзикл "Летучий корабль" состоит не из одних лишь песен.

Дополнительная информация:
Страна: Россия .
Выпущено: © АНО "Общественное телевидение России".
Автор инсценировки: Артём Абрамов.
Композитор: народный артист России Максим Дунаевский.
Текст песен: Юрий Энтин.
Режиссёр-постановщик: народная артистка России Тереза Дурова.
Режиссёр: Владимир Ананьев.
Художник-постановщик: народный художник России Мария Рыбасова.
Художник по костюмам: заслуженная артистка России Виктория Севрюкова.
Хореограф-постановщик: Артур Ощепков.
Художник по свету: заслуженный работник культуры России Андрей Изотов.
Дирижёр: Максим Гуткин.
Художественный руководитель «Театриума на Серпуховке»: народная артистка России Тереза Дурова.
Премьера спектакля состоялась в 2010 году.
Режиссер телеверсии: Елена Черняк.
Оператор-постановщик: Игорь Хорев.
Оркестр:
дирижёр
- Максим Гуткин;
скрипка - Александр Бронвейбер;
синтезатор - Ольга Яковлева;
кларнет, саксофон - Кочар Термиджанов;
аккордеон - Сергей Осокин;
тромбон - Андрей Шербашин;
народные духовые - Владимир Парунцев;
домра, мандолина - Валентин Антонов;
бас-гитара, контабас - Евгений Козлов;
ударные - Василий Колода.

О спектакле.

Еще постеры

Релиз
Рип lesik689.

Качество видео:...SATRip
Формат:.................AVI
Видео:..720x400 (1.80:1), 25 fps, XviD MPEG-4 ~1717 kbps avg, 0.24 bit/pixel
Аудио:..48 kHz, AC3 Dolby Digital, 2/0 (L,R) ch, ~192 kbps

Отчет Media Info

1-е отделение
General
Complete name : Letuchy.korabl'_Teatrium.na.Serpukhovke.(2.otdeleniya.iz.2).2013.XviD.SATRip.fenixclub\Letuchy.korabl.Teatrium.na.Serpukhovke.2010_2.SATRip.fenixclub.com.avi
Формат : AVI
Формат/Информация : Audio Video Interleave
Размер файла : 523 Мбайт
Продолжительность : 38 м.
Общий поток : 1919 Кбит/сек
Программа кодирования : VirtualDubMod 1.5.10.2 (build 2542/release)
Библиотека кодирования : VirtualDubMod build 2542/release
Видео
Идентификатор : 0
Формат : MPEG-4 Visual
Профиль формата : Advanced Simple@L5
Параметр BVOP формата : 2
Параметр QPel формата : Нет
Параметр GMC формата : Без точки перехода
Параметр матрицы формата : Default (MPEG)
Режим смешивания : Сжатый битовый поток
Идентификатор кодека : XVID
Идентификатор кодека/Подсказка : XviD
Продолжительность : 38 м.
Битрейт : 1717 Кбит/сек
Ширина : 720 пикселей
Высота : 400 пикселей
Соотношение сторон : 5:4
Соотношение сторон в оригинале : 16:9
Частота кадров : 25,000 кадров/сек
Цветовое пространство : YUV
Субдискретизация насыщенности : 4:2:0
Битовая глубина : 8 бит
Тип развёртки : Прогрессивная
Метод сжатия : С потерями
Бит/(Пиксели*Кадры) : 0.239
Размер потока : 468 Мбайт (89%)
Библиотека кодирования : XviD 64
Аудио
Идентификатор : 1
Формат : AC-3
Формат/Информация : Audio Coding 3
Расширение режима : CM (complete main)
Параметр Endianness формата : Big
Идентификатор кодека : 2000
Продолжительность : 38 м.
Вид битрейта : Постоянный
Битрейт : 192 Кбит/сек
Каналы : 2 канала
Расположение каналов : Front: L R
Частота : 48,0 КГц
Битовая глубина : 16 бит
Метод сжатия : С потерями
Размер потока : 52,3 Мбайт (10%)
Выравнивание : Соединение по промежуткам
Продолжительность промежутка : 40 мс. (1,00 видеокадр)
Время предзагрузки промежутка : 512 мс.
2-е отделение
General
Complete name : Letuchy.korabl'_Teatrium.na.Serpukhovke.(2.otdeleniya.iz.2).2013.XviD.SATRip.fenixclub\Letuchy.korabl'_Teatrium.na.Serpukhovke.(2-e.otdelenie.iz.2).2013.XviD.SATRip.fenixclub.avi
Формат : AVI
Формат/Информация : Audio Video Interleave
Размер файла : 562 Мбайт
Продолжительность : 40 м.
Общий поток : 1920 Кбит/сек
Программа кодирования : VirtualDubMod 1.5.10.2 (build 2542/release)
Библиотека кодирования : VirtualDubMod build 2542/release
Видео
Идентификатор : 0
Формат : MPEG-4 Visual
Профиль формата : Advanced Simple@L5
Параметр BVOP формата : 2
Параметр QPel формата : Нет
Параметр GMC формата : Без точки перехода
Параметр матрицы формата : Default (MPEG)
Режим смешивания : Сжатый битовый поток
Идентификатор кодека : XVID
Идентификатор кодека/Подсказка : XviD
Продолжительность : 40 м.
Битрейт : 1718 Кбит/сек
Ширина : 720 пикселей
Высота : 400 пикселей
Соотношение сторон : 5:4
Соотношение сторон в оригинале : 16:9
Частота кадров : 25,000 кадров/сек
Цветовое пространство : YUV
Субдискретизация насыщенности : 4:2:0
Битовая глубина : 8 бит
Тип развёртки : Прогрессивная
Метод сжатия : С потерями
Бит/(Пиксели*Кадры) : 0.239
Размер потока : 503 Мбайт (89%)
Библиотека кодирования : XviD 64
Аудио
Идентификатор : 1
Формат : AC-3
Формат/Информация : Audio Coding 3
Расширение режима : CM (complete main)
Параметр Endianness формата : Big
Идентификатор кодека : 2000
Продолжительность : 40 м.
Вид битрейта : Постоянный
Битрейт : 192 Кбит/сек
Каналы : 2 канала
Расположение каналов : Front: L R
Частота : 48,0 КГц
Битовая глубина : 16 бит
Метод сжатия : С потерями
Размер потока : 56,2 Мбайт (10%)
Выравнивание : Соединение по промежуткам
Продолжительность промежутка : 40 мс. (1,00 видеокадр)
Время предзагрузки промежутка : 512 мс.

Скриншоты с названием постановки

Скриншоты


Альтернативный хост





Показать сообщения:    

Текущее время: 09-Дек 14:42

Часовой пояс: UTC + 3


Вы не можете начинать темы
Вы не можете отвечать на сообщения
Вы не можете редактировать свои сообщения
Вы не можете удалять свои сообщения
Вы не можете голосовать в опросах
Вы не можете прикреплять файлы к сообщениям
Вы не можете скачивать файлы