Потомок (Андрей Сенкевич) [2010 г., драма, WEB-DLRip] Государственный Академический ордена "Знак почёта" Русский Драматический театр им А. С. Пушкина Республики Саха (Якутия)


 

[Цитировать]

ПотомокНаименование театра: Государственный Академический ордена "Знак почёта" Русский Драматический театр им А. С. Пушкина Республики Саха (Якутия).
Год выпуска: 2010.
Жанр: драма.
Продолжительность: 01:25:10.
Режиссер: Андрей Сенкевич (Беларусь).
Действующие лица и исполнители:
Лидия Николаевна - Вера Прокудина,
Капитан НКВД Лабудыгин - Владислав Мичурин,
Потомок - Степан Федоренко,
Водитель Бабарыка - Дмитрий Юрченко,
Солдат Юлай Сайдашев - Владимир Кропотов,
Медсестра Настя - Марина Слепнёва.
О спектакле:
Спектакль «Потомок» - это попытка автора напомнить нынешнему поколению о подвигах военной поры. Каким образом? Посредством «ввода» главного героя, нашего современника в то страшное время, в 1942 год, куда он попадает во время обычной экскурсии по музею...
Естественно, после этого горнила в молодом человеке, до этого времени в прямом смысле не нюхавшего пороху, происходит настоящий переворот, переоценка всех ценностей. «Через главного героя автор пьесы и я, как режиссер, пытаемся объединить два поколения – старшее, прошедшее войну, и младшее, не познавшее тех ужасов», - поясняет режиссер Андрей Сенкевич.

Дополнительная информация:
Страна: Россия .
Автор: Владимир Жеребцов.
Художник-постановщик: заслуженный художник России, заслуженный художник Республики Саха (Якутия) Николай Попов.
Звуко-шумовое и видео оформление: Андрей Сенкевич.

Релиз
Рип sharky.

Качество видео:...WEB-DLRip
Формат:.................AVI
Видео:..704x384 (1.83:1), 25 fps, XviD build 50 ~1879 kbps avg, 0.28 bit/pixel
Аудио:..48 kHz, AC3 Dolby Digital, 2/0 (L,R) ch, ~192 kbps

Отчет Media Info

General
Complete name : Potomok_GARDT.im.Pushkina.Resp.Saha.2010.XviD.WEB-DLRip.fenixclub.avi
Формат : AVI
Формат/Информация : Audio Video Interleave
Размер файла : 1,24 Гбайт
Продолжительность : 1 ч. 25 м.
Общий поток : 2081 Кбит/сек
Программа кодирования : VirtualDubMod 1.5.10.3 | www.virtualdub-fr.org || (build 2550/release)
Библиотека кодирования : VirtualDubMod build 2550/release
Видео
Идентификатор : 0
Формат : MPEG-4 Visual
Профиль формата : Advanced Simple@L5
Параметр BVOP формата : 1
Параметр QPel формата : Нет
Параметр GMC формата : Без точки перехода
Параметр матрицы формата : Default (H.263)
Идентификатор кодека : XVID
Идентификатор кодека/Подсказка : XviD
Продолжительность : 1 ч. 25 м.
Битрейт : 1879 Кбит/сек
Ширина : 704 пикселя
Высота : 384 пикселя
Соотношение сторон : 1,85:1
Частота кадров : 25,000 кадров/сек
Цветовое пространство : YUV
Субдискретизация насыщенности : 4:2:0
Битовая глубина : 8 бит
Тип развёртки : Прогрессивная
Метод сжатия : С потерями
Бит/(Пиксели*Кадры) : 0.278
Размер потока : 1,12 Гбайт (90%)
Библиотека кодирования : XviD 1.2.1 (UTC 2008-12-04)
Аудио
Идентификатор : 1
Формат : AC-3
Формат/Информация : Audio Coding 3
Расширение режима : CM (complete main)
Параметр Endianness формата : Big
Идентификатор кодека : 2000
Продолжительность : 1 ч. 25 м.
Вид битрейта : Постоянный
Битрейт : 192 Кбит/сек
Каналы : 2 канала
Расположение каналов : Front: L R
Частота : 48,0 КГц
Битовая глубина : 16 бит
Метод сжатия : С потерями
Размер потока : 117 Мбайт (9%)
Выравнивание : Разделение по промежуткам
Продолжительность промежутка : 40 мс. (1,00 видеокадр)
Время предзагрузки промежутка : 500 мс.

Скриншоты


Альтернативный хост





Показать сообщения:    

Текущее время: 06-Дек 18:57

Часовой пояс: UTC + 3


Вы не можете начинать темы
Вы не можете отвечать на сообщения
Вы не можете редактировать свои сообщения
Вы не можете удалять свои сообщения
Вы не можете голосовать в опросах
Вы не можете прикреплять файлы к сообщениям
Вы не можете скачивать файлы