Вечно живые (Борис Морозов) [2013 г., драма, SATRip] Центральный академический театр Российской Армии


 

[Цитировать]

Вечно живые (2 действия)Название театра: Центральный академический театр Российской Армии.
Жанр: драма.
Год выпуска: 2013.
Продолжительность: 01:11:57 + 01:18:19 (02:30:16).
Режиссеры: народный артист России Борис Морозов, народный артист России Валерий Абрамов, Олег Будин, Татьяна Александрова.
Действующие лица и исполнители:
Бороздин Федор Иванович, врач - народный артист России Валерий Абрамов,
Варвара Капитоновна - заслуженная артистка России Мария Скуратова,
Борис - Константин Днепровский,
Ирина - заслуженная артистка России Наталья Лоскутова,
Марк - заслуженный артист России Николай Лазарев,
Вероника Богданова - Татьяна Морозова,
Ковалева Анна Михайловна - Ольга Вяликова,
Владимир - Юрий Сазонов,
Кузьмин - Сергей Иванюк,
Монастырская Антонина Николаевна - Ксения Хаирова,
Варя - Алена Фалалеева,
Люба - Анна Киреева,
Нюра, хлеборезка - Елена Анисимова,
Миша, студент - Денис Демин,
Танечка, студентка - Мария Белоненко,
Чернов Николай Николаевич - заслуженный артист Татарстана Николай Козак.
Описание:
Драматург Виктор Розов, фронтовик, едва выживыший после тяжелого ранения, хорошо зная истинную цену чести, совести, искренности, вере, мужеству, героизму, на истории одной семьи, одной любви без ложного пафоса, правдиво и поэтично рассказал о фронтовой жизни наших соотечественников и их жизни в тылу. Война беспощадно вторгается в судьбы людей, заставляя каждого персонажа спектакля сделать свой собственный выбор.
Дополнительная информация:
Страна: Россия .
Выпущено: © ООО "Яуза-Фильм", © Правительство Москвы.
Режиссер-постановщик спектакля: народный артист России Борис Морозов.
Режиссеры: народный артист России Валерий Абрамов, Олег Будин.
Автор: Виктор Розов.
Художник: народный художник СССР Иосиф Сумбаташвили.
Композитор: Рубен Затикян.
Художник по костюмам: Алена Сидорина.
Художник по свету: Анатолий Ремизов.
Премьера спектакля состоялась в апреле 2010 года.
Режиссер телеверсии: Татьяна Александрова.
Оператор-постановщик: Сергей Стариков.

О спектакле.
Релиз

Качество: SATRip
Формат: AVI
Видео:..720x400 (1.80:1), 25 fps, XviD MPEG-4 ~1250 kbps avg, 0.17 bit/pixel
Аудио:..44.100 kHz, MPEG Layer 3, 2 ch, ~128.00 kbps avg

Отчет Media Info

1-е действие
Общее
Полное имя : Vechno.zhivye_CATRA.(2.dejstviya.iz.2).2013.XviD.SATRip.fenixclub\Vechno.zhivye_CATRA.(1-e.dejstvie.iz.2).2013.XviD.SATRip.fenixclub.avi
Формат : AVI
Формат/Информация : Audio Video Interleave
Размер файла : 715 Мбайт
Продолжительность : 1 ч. 11 м.
Общий поток : 1389 Кбит/сек
Программа кодирования : VirtualDubModRus 1.5.10.2 (build 2542/release)
Библиотека кодирования : VirtualDub build 32842/release
Видео
Идентификатор : 0
Формат : MPEG-4 Visual
Профиль формата : Advanced Simple@L5
Параметр BVOP формата : 2
Параметр QPel формата : Нет
Параметр GMC формата : Без точки перехода
Параметр матрицы формата : Default (H.263)
Режим смешивания : Сжатый битовый поток
Идентификатор кодека : XVID
Идентификатор кодека/Подсказка : XviD
Продолжительность : 1 ч. 11 м.
Битрейт : 1251 Кбит/сек
Ширина : 720 пикселей
Высота : 400 пикселей
Соотношение сторон : 16:9
Частота кадров : 25,000 кадров/сек
Цветовое пространство : YUV
Субдискретизация насыщенности : 4:2:0
Битовая глубина : 8 бит
Тип развёртки : Прогрессивная
Метод сжатия : С потерями
Бит/(Пиксели*Кадры) : 0.174
Размер потока : 644 Мбайт (90%)
Библиотека кодирования : XviD 1.2.1 (UTC 2008-12-04)
Аудио
Идентификатор : 1
Формат : MPEG Audio
Версия формата : Version 1
Профиль формата : Layer 3
Режим : Joint stereo
Расширение режима : MS Stereo
Идентификатор кодека : 55
Идентификатор кодека/Подсказка : MP3
Продолжительность : 1 ч. 11 м.
Вид битрейта : Постоянный
Битрейт : 128 Кбит/сек
Каналы : 2 канала
Частота : 44,1 КГц
Метод сжатия : С потерями
Размер потока : 65,9 Мбайт (9%)
Выравнивание : Разделение по промежуткам
Продолжительность промежутка : 40 мс. (1,00 видеокадр)
Время предзагрузки промежутка : 500 мс.
Библиотека кодирования : LAME3.99.5
2-е действие
Общее
Полное имя : Vechno.zhivye_CATRA.(2.dejstviya.iz.2).2013.XviD.SATRip.fenixclub\Vechno.zhivye_CATRA.(2-e.dejstvie.iz.2).2013.XviD.SATRip.fenixclub.avi
Формат : AVI
Формат/Информация : Audio Video Interleave
Размер файла : 778 Мбайт
Продолжительность : 1 ч. 18 м.
Общий поток : 1390 Кбит/сек
Программа кодирования : VirtualDubModRus 1.5.10.2 (build 2542/release)
Библиотека кодирования : VirtualDub build 32842/release
Видео
Идентификатор : 0
Формат : MPEG-4 Visual
Профиль формата : Advanced Simple@L5
Параметр BVOP формата : 2
Параметр QPel формата : Нет
Параметр GMC формата : Без точки перехода
Параметр матрицы формата : Default (H.263)
Режим смешивания : Сжатый битовый поток
Идентификатор кодека : XVID
Идентификатор кодека/Подсказка : XviD
Продолжительность : 1 ч. 18 м.
Битрейт : 1252 Кбит/сек
Ширина : 720 пикселей
Высота : 400 пикселей
Соотношение сторон : 16:9
Частота кадров : 25,000 кадров/сек
Цветовое пространство : YUV
Субдискретизация насыщенности : 4:2:0
Битовая глубина : 8 бит
Тип развёртки : Прогрессивная
Метод сжатия : С потерями
Бит/(Пиксели*Кадры) : 0.174
Размер потока : 701 Мбайт (90%)
Библиотека кодирования : XviD 1.2.1 (UTC 2008-12-04)
Аудио
Идентификатор : 1
Формат : MPEG Audio
Версия формата : Version 1
Профиль формата : Layer 3
Режим : Joint stereo
Расширение режима : MS Stereo
Идентификатор кодека : 55
Идентификатор кодека/Подсказка : MP3
Продолжительность : 1 ч. 18 м.
Вид битрейта : Постоянный
Битрейт : 128 Кбит/сек
Каналы : 2 канала
Частота : 44,1 КГц
Метод сжатия : С потерями
Размер потока : 71,7 Мбайт (9%)
Выравнивание : Разделение по промежуткам
Продолжительность промежутка : 40 мс. (1,00 видеокадр)
Время предзагрузки промежутка : 500 мс.
Библиотека кодирования : LAME3.99.5

Скриншот с названием постановки

Скриншоты


Альтернативный хост





Показать сообщения:    

Текущее время: 10-Дек 13:52

Часовой пояс: UTC + 3


Вы не можете начинать темы
Вы не можете отвечать на сообщения
Вы не можете редактировать свои сообщения
Вы не можете удалять свои сообщения
Вы не можете голосовать в опросах
Вы не можете прикреплять файлы к сообщениям
Вы не можете скачивать файлы