Носорог (Иван Поповски) [2014 г., абсурд, SATRip] Московский театр "Мастерская П. Фоменко"


 

[Цитировать]

Носорог (2 действия)Название театра: Московский театр "Мастерская П. Фоменко".
Год выпуска: 2014.
Жанр: абсурд.
Продолжительность: 01:30:36 + 01:17:46 (02:39:52).
Режиссеры: Иван Поповски, Александр Смирнов.
Действующие лица и исполнители в порядке появления на сцене:
Домашняя хозяйка - pаслуженная артистка Росии Галина Тюнина,
Хозяин кафе - Сергей Якубенко,
Официантка - Ирина Кондакова,
Лавочник - Олег Любимов,
Лавочница - Юлия Камышева,
Логик - Дмитрий Рудков,
Старый господин - Игорь Войнаровский,
Дэзи - Серафима Огарева,
Жан - Олег Нирян,
Беранже - заслуженный артист России Кирилл Пирогов,
Дюдар - Алексей Колубков,
Ботар - заслуженный артист России Андрей Казаков,
Мсье Папийон - Никита Тюнин,
Мадам Беф - Галина Тюнина,
Пожарный - Сергей Якубенко,
Жан II - Олег Любимов,
Жена Жана II - Галина Тюнина,
Жан III - Дмитрий Рудков,
Жена Жана III - Юлия Камышева.
Спектакль ведет: Юлия Камышева.
Описание:
Знаменитый француз румынского происхождения Эжен Ионеско в пьесе "Носорог" яростно настаивает на необходимости сохранять человеческий облик в ситуации, когда все вокруг решили его потерять. С этой мыслью, как говорится, не поспоришь. Носорогом быть хорошо, а человеком лучше.
На фоне белых французских фасадов и синего неба течет привычная жизнь провинциального городка. Крик, вернее - рык носорога, кажется бредом, вернее, проще - нелепой фантазией. Но - нет. Мирный труд работников канцелярской конторы прерван известием о страшном преображении коллеги, а через мгновение паника охватывает всех. Начало похоже на анекдот, фарс. Люди превращаются в носорогов. Сперва - поодиночке, затем напасть приобретает массовый характер.

Дополнительная информация:
Страна: Россия .
Выпущено: © Московский театр "Мастерская П. Фоменко", НП "Культу.Ru!".
Режиссер-постановщик: Иван Поповски.
Автор: Эжен Ионеско.
Перевод: Лия Завьялова.
Сценография и костюмы: Ангелина Атлагич.
Художник по свету: Владислав Фролов.
Бутафория: Ирина Бачурина.
Хореограф: Валентина Гуревич.
Музыкальное оформление: Олег Любимов.
Режиссер телеверсии: Александр Смирнов.
Оператор-постановщик: Владимир Иванов.
Премьера спектакля состоялась 17 февраля 2006 года.

О спектакле.
Релиз

Качество видео:...SATRip
Формат:.................AVI
Видео:..720x400 (1.80:1), 25 fps, XviD MPEG-4 ~1709 kbps avg, 0.24 bit/pixel
Аудио:..44.100 kHz, MPEG Layer 3, 2 ch, ~128.00 kbps avg

Отчет MI

1-е действие:
General
Complete name : Nosorog_Masterskaya.Fomenko.(2.dejstviya.iz.2).2014. XviD.SATRip.fenixclub\Nosorog_Masterskaya.Fomenko.(1-e.dejstvie.iz.2).2014. XviD.SATRip.fenixclub.avi
Формат : AVI
Формат/Информация : Audio Video Interleave
Размер файла : 1,17 Гбайт
Продолжительность : 1 ч. 30 м.
Общий поток : 1848 Кбит/сек
Программа кодирования : VirtualDubModRus 1.5.10.2 (build 2542/release)
Библиотека кодирования : VirtualDub build 34753/release
Видео
Идентификатор : 0
Формат : MPEG-4 Visual
Профиль формата : Advanced Simple@L5
Параметр BVOP формата : 2
Параметр QPel формата : Нет
Параметр GMC формата : Без точки перехода
Параметр матрицы формата : Default (H.263)
Режим смешивания : Сжатый битовый поток
Идентификатор кодека : XVID
Идентификатор кодека/Подсказка : XviD
Продолжительность : 1 ч. 30 м.
Битрейт : 1710 Кбит/сек
Ширина : 720 пикселей
Высота : 400 пикселей
Соотношение сторон : 16:9
Частота кадров : 25,000 кадров/сек
Цветовое пространство : YUV
Субдискретизация насыщенности : 4:2:0
Битовая глубина : 8 бит
Тип развёртки : Прогрессивная
Метод сжатия : С потерями
Бит/(Пиксели*Кадры) : 0.237
Размер потока : 1,08 Гбайт (93%)
Библиотека кодирования : XviD 1.2.1 (UTC 2008-12-04)
Аудио
Идентификатор : 1
Формат : MPEG Audio
Версия формата : Version 1
Профиль формата : Layer 3
Режим : Joint stereo
Расширение режима : MS Stereo
Идентификатор кодека : 55
Идентификатор кодека/Подсказка : MP3
Продолжительность : 1 ч. 30 м.
Вид битрейта : Постоянный
Битрейт : 128 Кбит/сек
Каналы : 2 канала
Частота : 44,1 КГц
Метод сжатия : С потерями
Размер потока : 82,9 Мбайт (7%)
Выравнивание : Разделение по промежуткам
Продолжительность промежутка : 40 мс. (1,00 видеокадр)
Время предзагрузки промежутка : 500 мс.
2-е действие:
General
Complete name : Nosorog_Masterskaya.Fomenko.(2.dejstviya.iz.2).2014. XviD.SATRip.fenixclub\Nosorog_Masterskaya.Fomenko.(2-e.dejstvie.iz.2).2014. XviD.SATRip.fenixclub.avi
Формат : AVI
Формат/Информация : Audio Video Interleave
Размер файла : 1,00 Гбайт
Продолжительность : 1 ч. 17 м.
Общий поток : 1848 Кбит/сек
Программа кодирования : VirtualDubModRus 1.5.10.2 (build 2542/release)
Библиотека кодирования : VirtualDub build 32842/release
Видео
Идентификатор : 0
Формат : MPEG-4 Visual
Профиль формата : Advanced Simple@L5
Параметр BVOP формата : 2
Параметр QPel формата : Нет
Параметр GMC формата : Без точки перехода
Параметр матрицы формата : Default (H.263)
Режим смешивания : Сжатый битовый поток
Идентификатор кодека : XVID
Идентификатор кодека/Подсказка : XviD
Продолжительность : 1 ч. 17 м.
Битрейт : 1710 Кбит/сек
Ширина : 720 пикселей
Высота : 400 пикселей
Соотношение сторон : 16:9
Частота кадров : 25,000 кадров/сек
Цветовое пространство : YUV
Субдискретизация насыщенности : 4:2:0
Битовая глубина : 8 бит
Тип развёртки : Прогрессивная
Метод сжатия : С потерями
Бит/(Пиксели*Кадры) : 0.238
Размер потока : 951 Мбайт (93%)
Библиотека кодирования : XviD 1.2.1 (UTC 2008-12-04)
Аудио
Идентификатор : 1
Формат : MPEG Audio
Версия формата : Version 1
Профиль формата : Layer 3
Режим : Joint stereo
Расширение режима : MS Stereo
Идентификатор кодека : 55
Идентификатор кодека/Подсказка : MP3
Продолжительность : 1 ч. 17 м.
Вид битрейта : Постоянный
Битрейт : 128 Кбит/сек
Каналы : 2 канала
Частота : 44,1 КГц
Метод сжатия : С потерями
Задержка видео : 7 мс.
Размер потока : 71,2 Мбайт (7%)
Выравнивание : Разделение по промежуткам
Продолжительность промежутка : 40 мс. (1,00 видеокадр)
Время предзагрузки промежутка : 500 мс.
Библиотека кодирования : LAME3.99.5

Скриншоты


Альтернативный хост





Показать сообщения:    

Текущее время: 19-Янв 22:15

Часовой пояс: UTC + 3


Вы не можете начинать темы
Вы не можете отвечать на сообщения
Вы не можете редактировать свои сообщения
Вы не можете удалять свои сообщения
Вы не можете голосовать в опросах
Вы не можете прикреплять файлы к сообщениям
Вы не можете скачивать файлы