Огниво (Тереза Дурова) [2014, Россия, детский мьюзикл, DVB] Театриум на Серпуховке


 

[Цитировать]

Огниво (2 отделения)
Название театра: Театриум на Серпуховке
Страна: Россия
Жанр: детский мьюзикл
Год выпуска: 2014
Продолжительность: 00:40:15 + 00:53:00
Перевод: Не требуется
Режиссёр: Тереза Дурова
В ролях:
Солдат - Евгений Мишечкин
Ведьма - Юлия Тарникова
Первая собака - Николай Зверев
Вторая собака - засл. арт. РФ Рафаэль Наджаф-Заде
Третья собака - Геннадий Краковский
Принцесса - Маргарита Белкина
Король - засл. арт. РФ Борис Рывкин
Министр - Сергей Дик
Няня - Дарья Коршунова
Палач - Георгий Сукосян
Придворные - Алексей Калакин, Людмила Марфелева, Вероника Ким, Наталья Валуева, Юлия Андриянова , Юлия Юнушева, Петр Королёв, Наталья Самсонова
Описание:
Поэтичная и удивительная история «Огниво» короля сказок Ганса-Христиана Андерсена на сцене «Театриума на Серпуховке».
История о любви обыкновенного солдата к избалованной и своенравной принцессе наполнена волшебными событиями и персонажами и преподнесена в современном ключе. Модная хореография, каскадерские драки, спецэффекты, зрелищные декорации, оригинальные режиссерские находки, динамично развивающиеся события – все это увлекает и детей, и взрослых. От начала и до конца спектакль держит зрителя в напряжении, вызывает бурю чувств и эмоций. Благодаря подаче и акцентам он очень актуален и понятен подрастающему поколению. А музыка, сочиненная и исполняемая Оркестром Робинзона Крузo, - это смешение джаза, трип-хопа, даба, афробита, этно, эмбиента и иных, модных, интересных и современных направлений.
Доп. информация:
Премьера состоялась 20 декабря 2011г.
Режиссер-постановщик - нар. арт. РФ Тереза Дурова
Хореограф-постановщик - Артур Ощепков
Автор инсценировки - Артем Абрамов
Тексты песен - Андрей Усачев
Композиторы - Аркадий Мартыненко , Николай Анохин , Сергей Беляев , Сергей Таюшев-младший , Павел Куц , Стас Астахов , Наиль Курамшин , Родион Михайлов.
Подробности - http://www.teatrium.ru/tabid/362/SpectacleId/38/Default.aspx
Качество видео: DVB
Формат видео: MPEG2
Видео: MPEG2 Video 720x576 (16:9) 25fps 3239kbps [Video]
Аудио: Dolby AC3 48000Hz 2ch 192kbps [AC-3]

MediaInfo

Полное имя : E:\РАЗДАЧИ\Огниво Театриум\Огниво_Театриум\Огниво-1.mpg
Формат : MPEG-PS
Размер файла : 1008 Мбайт
Продолжительность : 40 м.
Режим общего битрейта : Переменный
Общий поток : 3501 Кбит/сек
Библиотека кодирования : (c) 1998-2012 Womble Multimedia, Inc. / MPEG Video Wizard DVD 5.0.1.100 (03/2011) / Sep 22 2012
Видео
Идентификатор : 224 (0xE0)
Формат : MPEG Video
Версия формата : Version 2
Профиль формата : Main@Main
Параметр BVOP формата : Да
Параметр матрицы формата : По умолчанию
Продолжительность : 40 м.
Вид битрейта : Переменный
Битрейт : 3239 Кбит/сек
Ширина : 720 пикселей
Высота : 576 пикселей
Соотношение сторон : 16:9
Частота кадров : 25,000 кадров/сек
Стандарт вещания : PAL
Цветовое пространство : YUV
Субдискретизация насыщенности : 4:2:0
Битовая глубина : 8 бит
Тип развёртки : Прогрессивная
Метод сжатия : С потерями
Бит/(Пиксели*Кадры) : 0.312
Размер потока : 932 Мбайт (93%)
Библиотека кодирования : (c) 1998-2012 Womble Multimedia, Inc. / MPEG Video Wizard DVD 5.0.1.100 (03/2011) / Sep 22 2012
Аудио
Идентификатор : 189 (0xBD)-128 (0x80)
Формат : AC-3
Формат/Информация : Audio Coding 3
Расширение режима : CM (complete main)
Параметр Endianness формата : Big
Режим смешивания : DVD-Video
Продолжительность : 40 м.
Вид битрейта : Постоянный
Битрейт : 192 Кбит/сек
Каналы : 2 канала
Расположение каналов : Front: L R
Частота : 48,0 КГц
Битовая глубина : 16 бит
Метод сжатия : С потерями
Размер потока : 55,3 Мбайт (5%)

Скриншот с названием постановки

Скриншоты




Показать сообщения:    

Текущее время: 04-Дек 11:15

Часовой пояс: UTC + 3


Вы не можете начинать темы
Вы не можете отвечать на сообщения
Вы не можете редактировать свои сообщения
Вы не можете удалять свои сообщения
Вы не можете голосовать в опросах
Вы не можете прикреплять файлы к сообщениям
Вы не можете скачивать файлы