Перед заходом солнца (2 части) (Борис Луценко) [2007, Беларусь, драма, TVRip] Минский русский драматический театр им. М.Горького


 

[Цитировать]

Перед заходом солнца (2 части)
Название театра: Минский русский драматический театр им. М.Горького
Страна: Беларусь
Жанр: драма
Год выпуска: 2007
Продолжительность: 01:33:05 + 01:16:25
Язык: Русский
Режиссёр: Борис Луценко
В ролях: Ростислав Янковский, Белла Масумян, Вячеслав Солодилов, Анастасия Шпаковская, Сергей Чекерес, Иван Мацкевич, Лина Цветкова, Олег Корчиков, Александр Жданович, Андрей Дударенко, Александр Брухацкий, Людмила Былинская, Оксана Лесная, Андрей Захаревич, Виктор Гудинович, Татьяна Гаркуша и др.
Описание: По одноименной пьесе Г.Гауптмана в постановке Национального академического русского драматического театра имени Максима Горького (г.Минск).
Перевод и инсценировка Виктора Леденёва.
Сегодня, как и 80 лет назад эта история странной любви 70-летнего мужчины и 20-летней девушки по-прежнему волнует и восхищает. В блестящем актёрском ансамбле Русского театра по-особому раскрылся талант мэтра сценического искусства, народного артиста СССР Ростислава Ивановича Янковского. В этой его роли незаурядное актёрское дарование и личностные качества большого человека замечательным образом совпали, явив полифоничный образ настоящего Героя, способного противостоять косности изживших себя стереотипов и привычек, отстоять своё человеческое право на выбор и сохранить цельность души.
Качество видео: TVRip
Формат видео: AVI
Видео: XviD, 704х528, (1.33:1), 25 fps, ~2000 kbs
Аудио: MP3, 48 kHz, 2 channels, 128 kbs
Сэмпл 1: http://multi-up.com/975026
Сэмпл 2: http://multi-up.com/975028

MediaInfo

1 часть:
D:\Видео\Торрент\Видео для торрента\Перед заходом солнца\Перед заходом солнца (1).avi
General
Complete name : D:\Видео\Торрент\Видео для торрента\Перед заходом солнца\Перед заходом солнца (1).avi
Format : AVI
Format/Info : Audio Video Interleave
Format profile : OpenDML
File size : 1.39 GiB
Duration : 1h 33mn
Overall bit rate : 2 140 Kbps
Writing application : Lavf54.63.104
Video #0
ID : 0
Format : xvid
Codec ID : xvid
Duration : 1h 33mn
Bit rate : 1 997 Kbps
Width : 704 pixels
Height : 528 pixels
Display aspect ratio : 4:3
Frame rate : 25.000 fps
Bits/(Pixel*Frame) : 0.215
Stream size : 1.30 GiB (93%)
Audio #1
ID : 1
Format : MPEG Audio
Format version : Version 1
Format profile : Layer 3
Mode : Joint stereo
Mode extension : MS Stereo
Codec ID : 55
Codec ID/Hint : MP3
Duration : 1h 33mn
Bit rate mode : Constant
Bit rate : 128 Kbps
Channel(s) : 2 channels
Sampling rate : 48.0 KHz
Compression mode : Lossy
Stream size : 85.2 MiB (6%)
Alignment : Aligned on interleaves
Interleave, duration : 24 ms (0.60 video frame)
2 часть:
D:\Видео\Торрент\Видео для торрента\Перед заходом солнца\Перед заходом солнца (2).avi
General
Complete name : D:\Видео\Торрент\Видео для торрента\Перед заходом солнца\Перед заходом солнца (2).avi
Format : AVI
Format/Info : Audio Video Interleave
Format profile : OpenDML
File size : 1.14 GiB
Duration : 1h 16mn
Overall bit rate : 2 142 Kbps
Writing application : Lavf54.63.104
Video #0
ID : 0
Format : xvid
Codec ID : xvid
Duration : 1h 16mn
Bit rate : 1 998 Kbps
Width : 704 pixels
Height : 528 pixels
Display aspect ratio : 4:3
Frame rate : 25.000 fps
Bits/(Pixel*Frame) : 0.215
Stream size : 1.07 GiB (93%)
Audio #1
ID : 1
Format : MPEG Audio
Format version : Version 1
Format profile : Layer 3
Mode : Joint stereo
Mode extension : MS Stereo
Codec ID : 55
Codec ID/Hint : MP3
Duration : 1h 16mn
Bit rate mode : Constant
Bit rate : 128 Kbps
Channel(s) : 2 channels
Sampling rate : 48.0 KHz
Compression mode : Lossy
Stream size : 70.0 MiB (6%)
Alignment : Aligned on interleaves
Interleave, duration : 24 ms (0.60 video frame)

Скриншот с названием постановки

Скриншоты









Показать сообщения:    

Текущее время: 04-Дек 00:48

Часовой пояс: UTC + 3


Вы не можете начинать темы
Вы не можете отвечать на сообщения
Вы не можете редактировать свои сообщения
Вы не можете удалять свои сообщения
Вы не можете голосовать в опросах
Вы не можете прикреплять файлы к сообщениям
Вы не можете скачивать файлы