Солдатики любви (Яков Рубин) [2013 г., Драма, WEB-DLRip] Камерный драматический театр, г. Вологда


 

[Цитировать]

Солдатики любвиНазвание театра: Камерный драматический театр, г. Вологда.
Жанр: Драма.
Год выпуска: 2013.
Продолжительность: 00:57:19.
Режиссер-постановщик: Яков Рубин.
Действующие лица и исполнители:
Ираида Фонвизина-Костяева - заслуженная артистка России Ирина Джапакова,
Люся - Елена Смирнова,
Борис Костяев - Александр Сергеенко,
Старшина Мохнаков - Вячеслав Федотов.
О спектакле:
Современная пастораль по повести В.П.Астафьева «Пастух и пастушка» темой спектакля стали две страшные силы: любовь и смерть. Они ведут жестокую битву, а линия фронта проходит через сердце каждого из нас.
Дополнительная информация:
Страна: Россия .
Автор: Виктор Петрович Астафаев.
Музыка Альфреда Шнитке
Партия фортепиано: заслуженная артистка России Елена Распутько.
Стихи Владимира Высцкого.
Звукооператор: Олег Макаров.
Особый поклон Александру Кувшинову.
Премьера состоялась 15 декабря 2009 года.

О спектакле.
Релиз
Рип sharky.

Качество видео:...WEB-DLRip
Формат:.................AVI
Видео:..704x400 (1.76:1), 25 fps, XviD build 50 ~1611 kbps avg, 0.23 bit/pixel
Аудио:..48 kHz, AC3 Dolby Digital, 2/0 (L,R) ch, ~192 kbps

Отчет Media Info

General
Complete name : Soldatiki.lyubvi_Vologodskij.KDT.2013.XviD.WEB-DLRip.fenixclub.avi
Формат : AVI
Формат/Информация : Audio Video Interleave
Размер файла : 743 Мбайт
Продолжительность : 57 м.
Общий поток : 1814 Кбит/сек
Программа кодирования : VirtualDubMod 1.5.10.3 | www.virtualdub-fr.org || (build 2550/release)
Библиотека кодирования : VirtualDubMod build 2550/release
Видео
Идентификатор : 0
Формат : MPEG-4 Visual
Профиль формата : Advanced Simple@L5
Параметр BVOP формата : 1
Параметр QPel формата : Нет
Параметр GMC формата : Без точки перехода
Параметр матрицы формата : Default (H.263)
Идентификатор кодека : XVID
Идентификатор кодека/Подсказка : XviD
Продолжительность : 57 м.
Битрейт : 1612 Кбит/сек
Ширина : 704 пикселя
Высота : 400 пикселей
Соотношение сторон : 16:9
Частота кадров : 25,000 кадров/сек
Цветовое пространство : YUV
Субдискретизация насыщенности : 4:2:0
Битовая глубина : 8 бит
Тип развёртки : Прогрессивная
Метод сжатия : С потерями
Бит/(Пиксели*Кадры) : 0.229
Размер потока : 661 Мбайт (89%)
Библиотека кодирования : XviD 1.2.1 (UTC 2008-12-04)
Аудио
Идентификатор : 1
Формат : AC-3
Формат/Информация : Audio Coding 3
Расширение режима : CM (complete main)
Параметр Endianness формата : Big
Идентификатор кодека : 2000
Продолжительность : 57 м.
Вид битрейта : Постоянный
Битрейт : 192 Кбит/сек
Каналы : 2 канала
Расположение каналов : Front: L R
Частота : 48,0 КГц
Битовая глубина : 16 бит
Метод сжатия : С потерями
Размер потока : 78,7 Мбайт (11%)
Выравнивание : Разделение по промежуткам
Продолжительность промежутка : 40 мс. (1,00 видеокадр)
Время предзагрузки промежутка : 500 мс.

Скриншоты


Альтернативный хост





Показать сообщения:    

Текущее время: 07-Дек 17:27

Часовой пояс: UTC + 3


Вы не можете начинать темы
Вы не можете отвечать на сообщения
Вы не можете редактировать свои сообщения
Вы не можете удалять свои сообщения
Вы не можете голосовать в опросах
Вы не можете прикреплять файлы к сообщениям
Вы не можете скачивать файлы