Холстомер (Руслан Кудашов) [2008, Куклы\\Драма, SATRip, WMV] БТК (Большой Театр Кукол)


 

[Цитировать]

Холстомер (Хроника спасения одной души)
Название театра: БТК (Большой Театр Кукол)
Жанр: Куклы\Драма
Год выпуска: 2008
Продолжительность: 1 час 2 мин.
Режиссёр: Руслан Кудашов
Художник - Андрей Запорожский
Музыкальное оформление - Владимир Бычковский
Хореограф - Ирина Ляховская
Художник по свету - Денис Солнцев
Концертмейстер - Светлана Бортова
Действующие лица и исполнители:
Холстомер - Петр Васильев
В спектакле заняты - Татьяна Баркова, Борис Матвеев , Александр Куприянов, Денис Пьянов, Ольга Гапоненко
Описание: Хроника предполагает определение и оценку многих нравственных ориентиров: Что способствует обретению души? Можно ли спасти то, чего нет? Что есть живое? Сосущее из жизни все, до чего могут дотянуться руки? Торжествующее клеймо «моё» на всем, что удалось отвоевать? Бесконечное удовлетворение трескающейся по швам плоти?История Холстомера, которая будет представлена на сцене, поэтому история не столько о лошади, как о животном в мире людей, сколько о вообще существе живом в мире существ «разных», по очень «разному» наполняющих данную им форму существования. И суть трагической проблемы не в самой жестокости, с которой люди обращаются с живыми существами, а в отсутствии того органа, который эту жестокость мог бы идентифицировать, зеркально отобразив существо, именующее себя разумным.В спектакле много запоминающихся сцен, некоторые, например, появление безликих героев (эпизод «Красивая жизнь») воссоздают в памяти образы Салтыкова-Щедрина – вещественный мир в мире, нравственно отмененном. Но самые сильные и значительные сцены в спектакле – сцены, существующие вне всяких литературных ассоциаций и традиций. И именно эти сцены делают спектакль таким особенным, а диалог с создателями спектакля таким высоким по духу. Новый спектакль БТК утверждает милосердие и духовность, недаром его предваряет эпиграф из Евангелия от Иоанна: «…если пшеничное зерно, падши в землю, не умрет, то останется одно; а если умрет, то принесет много плода». И это вселяет надежду.

Номинации и награды

Гран-при Международного фестиваля «Два-мало, три-много» (г.Пловдив, Болгария 2008г.)
Дипломант фестиваля «Ученики мастера» Санкт-Петербург 2008г.
Номинант Высшей национальной премии «Золотая маска» (сезон 2007-2008 г.) во всех четырех номинациях
Артист Петр Васильев стал лауреатом Национальной премии «Золотая маска» в номинации «лучшая мужская роль в театре кукол»
В 2008г. Большой театр кукол за создание спектакля «Холстомер» удостоен Диплома Губернатора III степени (премия правительства СПб в области литературы, искусства и архитектуры)
В октябре 2012 года спектакль был показан в Нью-Йорке в Центре Барышникова
Спектакль взят с сайта http://culture.ru/
Семпл: http://yadi.sk/d/K3v7jO3hQ4aZ9
Качество видео: SATRip
Формат видео: WMV
Видео: Windows Media Video 8 1920x1080 8416kbps [Raw Video 0]
Аудио: WMA 2 48000Hz stereo 192kbps [Raw Audio 1]

MediaInfo

Формат : Windows Media
Размер файла : 3,16 Гбайт
Продолжительность : 1 ч. 2 м.
Общий поток : 7274 Кбит/сек
Максимальный общий битрейт : 8786 Кбит/сек
Дата кодирования : UTC 1970-01-01 00:00:00.000
metadatacreator : Zencoder
hasKeyframes : true
hasVideo : true
hasAudio : true
hasMetadata : true
canSeekToEnd : true
duration : 3726
datasize : 442069955
videosize : 392330631
framerate : 25
videodatarate : 820
videocodecid : 7
width : 720
height : 404
audiosize : 48724772
audiodatarate : 98
audiocodecid : 10
audiosamplerate : 3
audiosamplesize : 1
stereo : true
filesize : 442089857
lasttimestamp : 3726
lastkeyframetimestamp : 3726
lastkeyframelocation : 442089837
WM/EncodingSettings : Lavf52.93.0
Видео
Идентификатор : 1
Формат : WMV2
Идентификатор кодека : WMV2
Идентификатор кодека/Информация : Windows Media Video 8
Описание кодека : wmv2
Продолжительность : 1 ч. 2 м.
Битрейт : 6785 Кбит/сек
Ширина : 1920 пикселей
Высота : 1080 пикселей
Соотношение сторон : 16:9
Частота кадров : 25,000 кадров/сек
Битовая глубина : 8 бит
Бит/(Пиксели*Кадры) : 0.131
Размер потока : 2,94 Гбайт (93%)
Аудио
Идентификатор : 2
Формат : WMA
Версия формата : Version 2
Идентификатор кодека : 161
Идентификатор кодека/Информация : Windows Media Audio
Описание кодека : Windows Media Audio V8
Продолжительность : 1 ч. 2 м.
Битрейт : 192 Кбит/сек
Каналы : 2 канала
Частота : 48,0 КГц
Битовая глубина : 16 бит
Размер потока : 85,3 Мбайт (3%)

Скриншот с названием постановки

Скриншоты




Показать сообщения:    

Текущее время: 03-Дек 16:46

Часовой пояс: UTC + 3


Вы не можете начинать темы
Вы не можете отвечать на сообщения
Вы не можете редактировать свои сообщения
Вы не можете удалять свои сообщения
Вы не можете голосовать в опросах
Вы не можете прикреплять файлы к сообщениям
Вы не можете скачивать файлы