100 оттенков синего (Яна Тумина) [2010, Драма, SATRip, WMV] БТК (Большой Театр Кукол)


 

[Цитировать]

100 оттенков синего (Эксцентрическая драма для двух актеров и кукол)
Название театра: БТК (Большой Театр Кукол)
Жанр: Драма
Год выпуска: 2010
Продолжительность: 1 час 37 мин.
Режиссёр: Яна Тумина
Сценография и костюмы - Эмиль Капелюш
Видео-арт - Александр Малышев, Кирилл Маловичко
Музыкальное оформление - Андрей Сизинцев
Художник по свету - Лариса Новикова
Объекты и куклы - Кира Камалидинова, Татьяна Стоя
Действующие лица и исполнители: Лариса (одинокая девушка средних лет, почтальон) - Марина Солопченко
Степан (холостой мужчина средних лет, блоггер) - Сергей Бызгу
Кукла-ребёнок - Ольга Гапоненко, Алексей Шишигин
Синие - Константин Королько, Андрей Русин, Александр Краснов, Анатолий Гущин, Денис Казачук
Описание: «100 оттенков синего» - спектакль-путешествие в поисках ответа на вопрос: в этом мире еще существует любовь? Вместе с героями, которых сыграет блистательный актерский дуэт - Марина Солопченко и Сергей Бызгу, зритель пойдет по извилистому пути мыслей и чувств, реального и виртуального, по пути познания себя и своего ближнего. Параллельно с историей живых людей свою трагическую прогулку ко встрече с самым дорогим на свете человеком, матерью, совершит кукольное существо, которое будет молчаливо сопровождать главных героев на протяжении всего их путешествия. Эту эксцентрическую драму режиссер Яна Тумина адресует в первую очередь молодому поколению, потому что именно ему свойственно искать ответы на вопросы. Но в целом авторы проекта уверены, что постановка вызовет интерес у широкой аудитории.
Главная героиня спектакля – почтальон Лариса, которая обожает интересные открытки и жалуется на то, что с каждым годом их становится всё меньше и меньше («одни счета, квитанции…»). Она любит читать чужие истории на обороте каждой из них. Её дом напоминает цветущий сад, где вместо живых роз - бумажные цветы (множество свернутых в трубочку открыток ). Другой герой этого спектакля – блоггер Степан, современный "продвинутый" мужчина, создатель своего собственного сайта. В «100 оттенках синего» сталкиваются два мира: синих чернил на белой бумаге и виртуального скрипта, открыток и интернета, женского и мужского…
Почему спектакль «100 оттенков синего» так называется? Здесь визуальный ряд, образы, слова так или иначе связаны с этим цветом. Действие происходит зимой, в Рождество, когда одинокий почтальон Лариса сделала себе подарок — купила ноутбук — и познакомилась в сети с одиноким блоггером Степаном — Сергеем Бызгу. Степаном, создавшим сайт «любви.нет». В спектакле, рабочее название которого было «Воздухоплавание», значим мотив полета. Героев тянет в небеса, и Степан признается даже, что когда-то, накопив денег, он купил диплом аэронавта. Наконец, герой Бызгу рассказывает о племени, в языке которого нет слова «синий», и люди племени не видят, не воспринимают синий цвет. Степан рассказывает это, чтобы доказать: любовь — не то, что под этим понимают. Анатомия, физиология, что угодно — но никакой «мистики». Слова «любовь» и «синий» в спектакле сопрягаются.
Спектакль взят с сайта http://culture.ru/
Семпл: http://yadi.sk/d/wIRaPuHRQ3khY
Качество видео: SATRip
Формат видео: MKV
Видео: Windows Media Video 8 1920x1080 8416kbps [Raw Video 0]
Аудио: WMA 2 48000Hz stereo 192kbps [Raw Audio 1]

MediaInfo

Формат : Windows Media
Размер файла : 3,23 Гбайт
Продолжительность : 1 ч. 37 м.
Общий поток : 4732 Кбит/сек
Максимальный общий битрейт : 8786 Кбит/сек
Дата кодирования : UTC 1970-01-01 00:00:00.000
metadatacreator : Zencoder
hasKeyframes : true
hasVideo : true
hasAudio : true
hasMetadata : true
canSeekToEnd : true
duration : 5870
datasize : 422712558
videosize : 366102705
framerate : 25
videodatarate : 485
videocodecid : 7
width : 720
height : 404
audiosize : 55010997
audiodatarate : 70
audiocodecid : 10
audiosamplerate : 3
audiosamplesize : 1
stereo : true
filesize : 422747814
lasttimestamp : 5870
lastkeyframetimestamp : 5870
lastkeyframelocation : 422747794
WM/EncodingSettings : Lavf52.93.0
Видео
Идентификатор : 1
Формат : WMV2
Идентификатор кодека : WMV2
Идентификатор кодека/Информация : Windows Media Video 8
Описание кодека : wmv2
Продолжительность : 1 ч. 37 м.
Битрейт : 4344 Кбит/сек
Ширина : 1920 пикселей
Высота : 1080 пикселей
Соотношение сторон : 16:9
Частота кадров : 25,000 кадров/сек
Битовая глубина : 8 бит
Бит/(Пиксели*Кадры) : 0.084
Размер потока : 2,97 Гбайт (92%)
Аудио
Идентификатор : 2
Формат : WMA
Версия формата : Version 2
Идентификатор кодека : 161
Идентификатор кодека/Информация : Windows Media Audio
Описание кодека : Windows Media Audio V8
Продолжительность : 1 ч. 37 м.
Битрейт : 192 Кбит/сек
Каналы : 2 канала
Частота : 48,0 КГц
Битовая глубина : 16 бит
Размер потока : 134 Мбайт (4%)

Скриншот с названием постановки

Скриншоты




Показать сообщения:    

Текущее время: 10-Дек 13:48

Часовой пояс: UTC + 3


Вы не можете начинать темы
Вы не можете отвечать на сообщения
Вы не можете редактировать свои сообщения
Вы не можете удалять свои сообщения
Вы не можете голосовать в опросах
Вы не можете прикреплять файлы к сообщениям
Вы не можете скачивать файлы