Оловянный солдатик (Яна Тумина) [2011, Драма, SATRip, WMV] БТК (Большой Театр Кукол)


 

[Цитировать]

Оловянный солдатик (История о солдате, танцовщице, тролле и человеке)
Название театра: БТК (Большой театр кукол)
Жанр: Драма
Год выпуска: 2011
Продолжительность: 42 мин.
Режиссёр: Яна Тумина
Художник - Кира Камалидинова
Музыкальное оформление - Андрей Сизинцев, Анатолий Гонье
Художник по свету - Анастасия Кузнецова
Действующие лица и исполнители:
Солдат, Человек - Денис Казачук
Танцовщица - Екатерина Белевич
Тролль - Михаил Ложкин
Описание: "Было когда-то на свете двадцать пять оловянных солдатиков, родных братьев по матери — старой оловянной ложке; ружье на плече, голова прямо, красный с синим мундир — ну прелесть что за солдаты! Первые слова, которые они услышали, когда открыли их домик-коробку, были: «Ах, оловянные солдатики!» Это закричал, хлопая в ладоши, маленький мальчик, которому подарили оловянных солдатиков в день его рождения. Он сейчас же принялся расставлять их на столе. Все солдатики были совершенно одинаковы, кроме одного, который был на одной ноге. Его отливали последним, и олова немножко не хватило, но он стоял на своей одной ноге так же твердо, как другие на двух; и он-то как раз и оказался самым замечательным из всех..."
Режиссер Яна Тумина создала в Большом театре кукол необычный спектакль по мотивам самой романтичной и загадочной сказки Г.-Х. Андерсена. Три молодых актера Мастерской Р. Кудашова разыгрывают историю о любви, смерти и чести, но несмотря на серьезные темы, поднимаемые в спектакле, постанвока получилась эффектной, яркой и зрелищной благодаря акробатическим номерам, замечательной работе сценографа и художника по свету.
В этой истории все персонажи знаменитой сказки одинаково важны. И каждый из героев открывается зрителю в неожиданно новом свете. В центре событий оказывается тот самый мальчик, которому в день рождения подарили оловянных солдатиков. Мальчик вырос. И вот он, взрослый человек, пытается вспомнить, что же заставило его бросить игрушку в огонь. Человек беседует с Троллем и проживает всю сказку до конца – в роли простодушного игрушечного солдатика. Тролль – инфернальный, страстно влюбленный в танцовщицу, страдающий – придает знакомой истории новое звучание. Неожиданно и то, что Танцовщица, печальная и серьезная, из всех героев оказывается наиболее стойкой.
«Не думайте только, что в спектакле все ходят с серьезными лицами и ведут заумные разговоры. Яна Тумина знает, как заставить зрителей ахнуть и податься вперед, зажмуриться или пошире открыть глаза, когда поманить блестками, а когда напустить дыма. Просто за этой театральной акробатикой есть еще и история, которая останется в голове и в сердце после выхода из зрительного зала».
Надежда Демкина, журнал «Афиша».

Награды и номинации

Спектакль-номинант на звание "Лучшего спектакля для детей" 2011 года (Всероссийский фестиваль театрального искусства для детей "Арлекин")
Спектакль взят с сайта http://culture.ru/
Семпл: http://yadi.sk/d/Zw3qp6UBQ3hTX
Качество видео: SATRip
Формат видео: WMV
Видео: Windows Media Video 8 1920x1080 8416kbps [Raw Video 0]
Аудио: WMA 2 48000Hz stereo 192kbps [Raw Audio 1]

MediaInfo

Формат : Windows Media
Размер файла : 1,20 Гбайт
Продолжительность : 42 м.
Общий поток : 3993 Кбит/сек
Максимальный общий битрейт : 8786 Кбит/сек
Дата кодирования : UTC 1970-01-01 00:00:00.000
metadatacreator : Zencoder
hasKeyframes : true
hasVideo : true
hasAudio : true
hasMetadata : true
canSeekToEnd : true
duration : 2579
datasize : 166621483
videosize : 143645588
framerate : 25
videodatarate : 433
videocodecid : 7
width : 720
height : 404
audiosize : 22273611
audiodatarate : 64
audiocodecid : 10
audiosamplerate : 3
audiosamplesize : 1
stereo : true
filesize : 166638505
lasttimestamp : 2579
lastkeyframetimestamp : 2579
lastkeyframelocation : 166638485
WM/EncodingSettings : Lavf52.93.0
Видео
Идентификатор : 1
Формат : WMV2
Идентификатор кодека : WMV2
Идентификатор кодека/Информация : Windows Media Video 8
Описание кодека : wmv2
Продолжительность : 42 м.
Битрейт : 3634 Кбит/сек
Ширина : 1920 пикселей
Высота : 1080 пикселей
Соотношение сторон : 16:9
Частота кадров : 25,000 кадров/сек
Битовая глубина : 8 бит
Бит/(Пиксели*Кадры) : 0.070
Размер потока : 1,09 Гбайт (91%)
Аудио
Идентификатор : 2
Формат : WMA
Версия формата : Version 2
Идентификатор кодека : 161
Идентификатор кодека/Информация : Windows Media Audio
Описание кодека : Windows Media Audio V8
Продолжительность : 42 м.
Битрейт : 192 Кбит/сек
Каналы : 2 канала
Частота : 48,0 КГц
Битовая глубина : 16 бит
Размер потока : 59,0 Мбайт (5%)

Скриншот с названием постановки

Скриншоты




Показать сообщения:    

Текущее время: 08-Дек 23:12

Часовой пояс: UTC + 3


Вы не можете начинать темы
Вы не можете отвечать на сообщения
Вы не можете редактировать свои сообщения
Вы не можете удалять свои сообщения
Вы не можете голосовать в опросах
Вы не можете прикреплять файлы к сообщениям
Вы не можете скачивать файлы