Екклесиаст (Руслан Кудашов) [2013, Драма, SATRip, WMV] БТК (Большой Театр Кукол)


 

[Цитировать]

Екклесиаст
Название театра: БТК (Большой Театр Кукол)
Жанр: Драма
Год выпуска: 2013
Продолжительность: 1 час 34 мин.
Режиссура, хореография, художественное и музыкальное оформление - Руслан Кудашов, Ирина Ляховская
Художник по свету - Лариса Новикова
Звукорежиссёр - Анатолий Гонье, Юлия Гладышева
В ролях: Студенты Мастерской Кудашова
Описание: «Екклесиаст» — экспериментальная постановка режиссера Руслана Кудашова и хореографа Ирины Ляховской (оба — авторы режиссуры, хореографии, художественного и музыкального оформления). В этом спектакле, несмотря на то, что он входит в репертуар Большого театра кукол, на сцене — только актеры и ни одной куклы, если только не трактовать самого артиста как куклу, на чем настаивал, например, Гордон Крэг. Экспериментальный курс, которых Руслан Кудашев набирал специально для работы в кукольном театре, проходит такую вот постепенную адаптацию, через целую серию дипломных спектаклей, в которых кукол нет, зато много песен, движения, музыки. Это спектакль-импровизация на тему знаменитой книги Ветхого Завета, одного «из наиболее глубоких философских трактатов древности, провоцирующий на поиск смысла бытия в вечном круговороте дней». «Что пользы человеку от всех трудов его, которыми трудится он под солнцем?» К чему движется человек? Есть ли смысл в его бесконечном беге? Есть ли покой? Гармония? Свобода? Справедливость? «И кто знает: мудрый ли будет он, или глупый?» — вопросы из Книги Екклесиаста, которые выносят в эпиграф создатели спектакля.
Выбор материала режиссер объясняет так: «„Екклесиаст“ — единственное светское произведение Библии, оно идет от человека, от размышлений ума и плоти. В этом смысле физическое тело, которое мы в спектакле, грубо говоря, эксплуатируем — как нельзя лучше соответствует духу „Екклесиаста“. Кроме плоти здесь существует еще и песок — в нем копошатся, он ускользает, от него поднимается пыль... Все вместе создает единую языковую систему, несет смысловые образы книги».
Спектакль взят с сайта http://culture.ru/
Семпл: http://yadi.sk/d/Z8JbeZeaPwCjF
Качество видео: SATRip
Формат видео: WMV
Видео: Windows Media Video 8 1920x1080 8416kbps [Raw Video 0]
Аудио: WMA 2 48000Hz stereo 192kbps [Raw Audio 1]

MediaInfo

Формат : Windows Media
Размер файла : 4,85 Гбайт
Продолжительность : 1 ч. 34 м.
Общий поток : 7378 Кбит/сек
Максимальный общий битрейт : 8786 Кбит/сек
Дата кодирования : UTC 1970-01-01 00:00:00.000
metadatacreator : Zencoder
hasKeyframes : true
hasVideo : true
hasAudio : true
hasMetadata : true
canSeekToEnd : true
duration : 5645
datasize : 620763503
videosize : 552743328
framerate : 25
videodatarate : 763
videocodecid : 7
width : 720
height : 404
audiosize : 66482551
audiodatarate : 88
audiocodecid : 10
audiosamplerate : 3
audiosamplesize : 1
stereo : true
filesize : 620799083
lasttimestamp : 5645
lastkeyframetimestamp : 5645
lastkeyframelocation : 620799063
WM/EncodingSettings : Lavf52.93.0
Видео
Идентификатор : 1
Формат : WMV2
Идентификатор кодека : WMV2
Идентификатор кодека/Информация : Windows Media Video 8
Описание кодека : wmv2
Продолжительность : 1 ч. 34 м.
Битрейт : 6885 Кбит/сек
Ширина : 1920 пикселей
Высота : 1080 пикселей
Соотношение сторон : 16:9
Частота кадров : 25,000 кадров/сек
Битовая глубина : 8 бит
Бит/(Пиксели*Кадры) : 0.133
Размер потока : 4,52 Гбайт (93%)
Аудио
Идентификатор : 2
Формат : WMA
Версия формата : Version 2
Идентификатор кодека : 161
Идентификатор кодека/Информация : Windows Media Audio
Описание кодека : Windows Media Audio V8
Продолжительность : 1 ч. 34 м.
Битрейт : 192 Кбит/сек
Каналы : 2 канала
Частота : 48,0 КГц
Битовая глубина : 16 бит
Размер потока : 129 Мбайт (3%)

Скриншот с названием постановки

Скриншоты




Показать сообщения:    

Текущее время: 11-Дек 01:22

Часовой пояс: UTC + 3


Вы не можете начинать темы
Вы не можете отвечать на сообщения
Вы не можете редактировать свои сообщения
Вы не можете удалять свои сообщения
Вы не можете голосовать в опросах
Вы не можете прикреплять файлы к сообщениям
Вы не можете скачивать файлы