Башлачёв. Человек поющий (Павел Григорьев, Руслан Кудашов) [2011, Драма, SATRip, WMV] БТК (Большой Театр Кукол)


 

[Цитировать]

Башлачёв. Человек поющий
Название театра: БТК (Большой Театр Кукол)
Жанр: Драма
Год выпуска: 2011
Продолжительность: 1 час 57 мин.
Режиссёр - Павел Григорьев
Руководитель постановки - Руслан Кудашов
Концертмейстер - Регина Черткова
Педагог по вокалу - Павел Григорьев, Мария Саяпина
Описание: "Спектакль Руслана Кудашова, поставленный им с выпускниками своего актерского курса в СПбГАТИ, образовавшими при БТК молодежную студию, на первый взгляд больше похож на концерт. Молодые актеры по очереди выходят на узкий просценок между зрительным залом и длинным, уставленным гранеными стаканами столом, и исполняют песни и стихи Александра Башлачева – одного из лучших поэтов своего времени. Поначалу просто читают, доносят тексты, раскачивая эмоциональные качели от вселенской тоски до лихого разгула. Игриво меняют маски, превращаясь в сердобольных официанток, тоскующих по мужской ласке, или карикатурную бригаду строителей. Но постепенно разрозненные номера, не соединенные никаким сюжетным стержнем, складываются в целостный портрет, в картину мира человека, которому было слишком тесно и мелко в своем времени. Возможно так же, как нынешним молодым душно и тошно в своем. Поэтому башлачевские баллады они читают истово, взахлеб, обжигаясь, словно глотком морозного воздуха из открытого окна, который тут впускают в зал прямо с улицы, чтобы дать надышаться и нам".
Из буклета фестиваля "Золотая маска"
Премьеру этого спектакля сыграли 17 февраля 2011 года. В тот же день, только в 1988-м поэт, бард Александр Башлачев погиб, ему было 27 лет. «Смерти поэтов — всегда тревожные сигналы к тому, что с нами происходит, — сказал постановщик Руслан Кудашов в интервью газете „Аргументы и факты“ (16 февраля 2011).
— Песни Башлачева настолько о нас, обо мне, что он живёт и до сих пор меня формирует. Этот спектакль для меня — важнее, чем все, что я делаю».
Спектакль взят с сайта http://culture.ru/

Исполнители (по номерам):

Студенты Мастерской Кудашова
1. "Мельница" - Все участники концерта
2. "Грибоедовский вальс" - Иван Солнцев
3. "Абсолютный вахтер" - Денис Казачук
4. "Королева бутербродов" - Мария Батрасова, Роман Дадаев, Сергей Беспалов, Ренат Шавалиев
5. "Хозяйка" - Дмитрий Чупахин
6. "Хороший мужик" - Ирина Чугаевская
7. "Тесто" - Ренат Шавалиев
8. "От винта!" - Виктория Короткова
9. "Поезд № 193" - Наталья Сизова
10. "Музыкант" - Виктория Слуцкая
11. "Минута молчания" - Алесь Снопковский
12. "Влажный блеск наших глаз" - Михаил Гришин
13. "Трагикомический роман" - Екатерина Белевич
14. "Не позволяй душе лениться..." - Алесь Снопковский, Михаил Ложкин, Анатолий Гущин
15. "Петербургская свадьба" - Василиса Ручимская
16. "Галактическая комедия" - Михаил Ложкин
17. "Палата №6" - Роман Дадаев
18. "Лихо" - Эдуард Жолнин
19. "В чистом поле - дожди..." - Дмитрий Чупахин
20. "Перекур" - Мария Батрасова
21. "Имя Имён" - Все участники концерта
22. "Вишня" - Ирина Чугаевская, Виктория Короткова, Василиса Ручимская
23. "Осень" - Анатолий Гущин
24. "Ванюша" - Сергей Беспалов
25. "Как ветра осенние..." - Денис Казачук
26. "Когда мы вдвоём" - Анатолий Гущин
27. "Песенка на лесенке" - Виктория Слуцкая, Денис Казачук, Сергей Беспалов
28. "Всё будет хорошо" - Все участники концерта

Фестивали и награды

:
Спектакль участвовал в фестивалях:
VII Всероссийский театральный фестиваль им. Александра Володина (эскиз спектакля, февраль 2011, г. Санкт-Петербург)
Международный фестиваль "кукART - X" (июнь 2011, г. Санкт-Петербург)
XI Всероссийский фестиваль "Реальный театр" (сентябрь 2011, г. Екатеринбург)
"Маска PLUS" - внеконкурсная программа фестиваля "Золотая маска" (апрель 2012, г. Москва)
Семпл: http://yadi.sk/d/xww-hA0LPvboZ
Качество видео: SATRip
Формат видео: WMV
Видео: Windows Media Video 8 1920x1080 8416kbps [Raw Video 0]
Аудио: WMA 2 48000Hz stereo 192kbps [Raw Audio 1]

MediaInfo

Формат : Windows Media
Размер файла : 3,30 Гбайт
Продолжительность : 1 ч. 57 м.
Общий поток : 4027 Кбит/сек
Максимальный общий битрейт : 8786 Кбит/сек
Дата кодирования : UTC 1970-01-01 00:00:00.000
major_brand : isom
minor_version : 512
compatible_brands : isomiso2avc1mp41
WM/EncodingSettings : Lavf52.93.0
Видео
Идентификатор : 1
Формат : WMV2
Идентификатор кодека : WMV2
Идентификатор кодека/Информация : Windows Media Video 8
Описание кодека : wmv2
Продолжительность : 1 ч. 57 м.
Битрейт : 3666 Кбит/сек
Ширина : 1920 пикселей
Высота : 1080 пикселей
Соотношение сторон : 16:9
Частота кадров : 25,000 кадров/сек
Битовая глубина : 8 бит
Бит/(Пиксели*Кадры) : 0.071
Размер потока : 3,01 Гбайт (91%)
Аудио
Идентификатор : 2
Формат : WMA
Версия формата : Version 2
Идентификатор кодека : 161
Идентификатор кодека/Информация : Windows Media Audio
Описание кодека : Windows Media Audio V8
Продолжительность : 1 ч. 57 м.
Битрейт : 192 Кбит/сек
Каналы : 2 канала
Частота : 48,0 КГц
Битовая глубина : 16 бит
Размер потока : 161 Мбайт (5%)

Скриншот с названием постановки

Скриншоты




Показать сообщения:    

Текущее время: 08-Дек 03:14

Часовой пояс: UTC + 3


Вы не можете начинать темы
Вы не можете отвечать на сообщения
Вы не можете редактировать свои сообщения
Вы не можете удалять свои сообщения
Вы не можете голосовать в опросах
Вы не можете прикреплять файлы к сообщениям
Вы не можете скачивать файлы