Только не это, ваше величиство (Валерий Обогрелов) [1994, Сказка, DVDScreener]


 

[Цитировать]

Только не это, ваше величество!
Жанр: Сказка
Год выпуска: 1994
Продолжительность: 00:29:30
Режиссёр: Валерий Обогрелов
В ролях: Яков Малкин,Валерий Кухарешин,Олег Леваков,Владимир Лелетко,Александр Новиков
Описание: Телеспектакль по мотивам английской сказки.
Доп. информация:
Материал представлен Андреем Николаевым группа "Сказка за сказкой"
Семпл: http://yadi.sk/d/kctBPV90PsDqQ
Качество видео: VHS-Rip
Формат видео: AVI
Видео: Xvid 640x480 25fps 1500kbps
Аудио: MP3 44100Hz stereo 112kbps

MediaInfo

General
Complete name : G:\Только не это, ваше величиство6.avi
Format : AVI
Format/Info : Audio Video Interleave
File size : 342 MiB
Duration : 29mn 29s
Overall bit rate : 1 622 Kbps
Writing application : Lavf53.19.0
Writing library : VirtualDub build 34807/release
Video
ID : 0
Format : MPEG-4 Visual
Format profile : Advanced Simple@L5
Format settings, BVOP : Yes
Format settings, QPel : No
Format settings, GMC : No warppoints
Format settings, Matrix : Default (H.263)
Codec ID : XVID
Codec ID/Hint : XviD
Duration : 29mn 29s
Bit rate : 1 501 Kbps
Width : 640 pixels
Height : 480 pixels
Display aspect ratio : 4:3
Frame rate : 25.000 fps
Color space : YUV
Chroma subsampling : 4:2:0
Bit depth : 8 bits
Scan type : Progressive
Compression mode : Lossy
Bits/(Pixel*Frame) : 0.195
Stream size : 317 MiB (93%)
Writing library : XviD 64
Audio
ID : 1
Format : MPEG Audio
Format version : Version 1
Format profile : Layer 3
Mode : Joint stereo
Codec ID : 55
Codec ID/Hint : MP3
Duration : 29mn 29s
Bit rate mode : Constant
Bit rate : 112 Kbps
Channel(s) : 2 channels
Sampling rate : 44.1 KHz
Compression mode : Lossy
Stream size : 23.6 MiB (7%)
Alignment : Split accross interleaves
Interleave, duration : 40 ms (1.00 video frame)
Interleave, preload duration : 500 ms

Скриншот с названием постановки

Скриншоты




Показать сообщения:    

Текущее время: 03-Дек 07:34

Часовой пояс: UTC + 3


Вы не можете начинать темы
Вы не можете отвечать на сообщения
Вы не можете редактировать свои сообщения
Вы не можете удалять свои сообщения
Вы не можете голосовать в опросах
Вы не можете прикреплять файлы к сообщениям
Вы не можете скачивать файлы