Час, когда в души идешь как в руки… (Чулпан Хаматова) [2014, Моноспектакль, CamRip]


 

[Цитировать]

Час, когда в души идешь как в руки…
Театр: Современник
Жанр: Моноспектакль
Год выпуска: 2014
Страна: Россия
Продолжительность: 1:17:14
Режиссёр: Чулпан Хаматова
В ролях:
Чулпан Хаматова - главная роль
Вероника Кожухарова - саксофон
Полина Кондраткова - фортепиано
Описание:
По мотивам произведений Марины Цветаевой и Беллы Ахмадулиной.
"Это не спектакль и это не концерт. И те зрители, которые ждут высот актёрского перевоплощения, не ждите — их не будет. Будут только музыка и слово… Как сказала Белла Ахмадулина: "две сильных тишины, два слабых горла: музыки и речи".Это не спектакль - это наше яростное желание поделиться возможностью побега из выхолощенной, бесчувственной реальности. Нас трех сегодняшних (саксофонистку Веронику Кожухарову, пианистку Полину Кондраткову и актрису Чулпан Хаматову), поведут за руки две величайших женщины, два великих поэта 20-го века - Марина Цветаева и Белла Ахмадулина. На вечере прозвучат их произведения: «Мать и музыка», «Уроки мызыки» и «Сказка о дожде». Большая дерзость читать со сцены эту прозу и стихи, но радость, которую они дарят, перевешивает любой страх. И зажмурившись, мы всё таки нырнём в эту прекрасную стихию."
Концерт состоялся в Кемеровской Государственной Областной Филармонии им. Б.Т. Штоколова 21.4.2014.
Доп. информация:
Чулпан Хаматова — российская актриса театра и кино, Народная артистка России, Лауреат Государственной премии России, ведущая артистка московского театра «Современник». Хаматова является одним из учредителей благотворительного фонда «Подари жизнь», активно занимающегося поддержкой больных детей России.
Семпл: http://yadi.sk/d/ONNIe-jQPSTx6
Качество видео: CamRip
Формат видео: DVD Video
Видео: MPEG2, 720x576, 16:9, 25 fps, 5346 Kbps Variable
Аудио: AC-3, 48 KHz, 16 bits, 192 Kbps, 2 channels

DVDInfo

Title: 21.4.2014
Size: 3.12 Gb ( 3 274 240,00 KBytes ) - DVD-5
Enabled regions: 1, 2, 3, 4, 5, 6, 7, 8
VTS_01 :
Play Length: 00:29:14+00:29:59+00:18:03
Video: PAL 16:9 (720x576) VBR, Auto Letterboxed
Audio:
Not specified, AC3, 2/0 (L,R) ch, 192 kbps, Delay 0 mSec
* Menus Information *
VIDEO_TS Menu
Video:
PAL 16:9 (720x576) VBR
Auto Letterboxed
English Language Unit :
Title Menu
VTS_01 Menu
Video:
NTSC 4:3 (720x480) VBR
Auto Pan&Scan, Auto Letterboxed
English Language Unit :
Root Menu

MediaInfo

Format : MPEG-PS
File size : 119 MiB
Duration : 3mn 6s
Overall bit rate mode : Variable
Overall bit rate : 5 346 Kbps
Video
ID : 224 (0xE0)
Format : MPEG Video
Format version : Version 2
Format profile : Main@Main
Format settings, BVOP : Yes
Format settings, Matrix : Default
Format settings, GOP : M=3, N=12
Duration : 3mn 6s
Bit rate mode : Variable
Bit rate : 5 048 Kbps
Maximum bit rate : 9 008 Kbps
Width : 720 pixels
Height : 576 pixels
Display aspect ratio : 16:9
Frame rate : 25.000 fps
Standard : PAL
Color space : YUV
Chroma subsampling : 4:2:0
Bit depth : 8 bits
Scan type : Progressive
Compression mode : Lossy
Bits/(Pixel*Frame) : 0.487
Time code of first frame : 00:18:00:12
Time code source : Group of pictures header
Stream size : 112 MiB (94%)
Audio
ID : 189 (0xBD)-128 (0x80)
Format : AC-3
Format/Info : Audio Coding 3
Mode extension : CM (complete main)
Format settings, Endianness : Big
Muxing mode : DVD-Video
Duration : 3mn 6s
Bit rate mode : Constant
Bit rate : 192 Kbps
Channel(s) : 2 channels
Channel positions : Front: L R
Sampling rate : 48.0 KHz
Bit depth : 16 bits
Compression mode : Lossy
Stream size : 4.27 MiB (4%)

Скриншот с названием постановки

Скриншоты



[Цитировать]

Благодарю Вас! И прекрасная поэзия, и прекрасное исполнение.


Показать сообщения:    

Текущее время: 07-Дек 13:31

Часовой пояс: UTC + 3


Вы не можете начинать темы
Вы не можете отвечать на сообщения
Вы не можете редактировать свои сообщения
Вы не можете удалять свои сообщения
Вы не можете голосовать в опросах
Вы не можете прикреплять файлы к сообщениям
Вы не можете скачивать файлы