Церемония вручения Национальной театральной премии "Золотая Маска" (2014) (Дмитрий Белов) [2014, торжественное мероприятие, DVB, AVC] Большой Театр России


 

[Цитировать]

Церемония вручения Национальной театральной премии "Золотая Маска" (2014)
Название театра: Большой Театр России
Жанр: торжественное мероприятие
Год выпуска: 2014
Продолжительность: 01:43:25
Режиссёр: Дмитрий Белов
Описание: Церемония вручения Премий «Золотая Маска» состоялась 18 апреля на исторической сцене Большого театра.
Семпл: http://sendfile.su/974637
Качество видео: DVB
Формат видео: MKV
Видео: (H264) 720x576 (4:3), обрезка средствами контейнера до 720x432 (16:9) 25.000 fps 1169 Kbps
Аудио: Русский mp2 160 Kbps 48000Hz 2 ch mono

MediaInfo

Format : Matroska
Format version : Version 4 / Version 2
File size : 1 003 MiB
Duration : 1h 43mn
Overall bit rate mode : Constant
Overall bit rate : 1 356 Kbps
Encoded date : UTC 2014-05-01 21:22:57
Writing application : mkvmerge v6.1.0 ('Old Devil') built on Mar 4 2013 09:10:42
Writing library : libebml v1.3.0 + libmatroska v1.4.0
Video
ID : 1
Format : AVC
Format/Info : Advanced Video Codec
Format profile : Main@L3.0
Format settings, CABAC : Yes
Format settings, ReFrames : 3 frames
Codec ID : V_MPEG4/ISO/AVC
Duration : 1h 43mn
Bit rate mode : Constant
Bit rate : 1 169 Kbps
Nominal bit rate : 1 300 Kbps
Width : 720 pixels
Height : 576 pixels
Display aspect ratio : 4:3
Frame rate mode : Constant
Frame rate : 25.000 fps
Standard : PAL
Color space : YUV
Chroma subsampling : 4:2:0
Bit depth : 8 bits
Scan type : Interlaced
Bits/(Pixel*Frame) : 0.113
Stream size : 865 MiB (86%)
Default : Yes
Forced : No
Color primaries : BT.601 PAL
Transfer characteristics : BT.470 System B, BT.470 System G
Matrix coefficients : BT.601
Audio
ID : 2
Format : MPEG Audio
Format version : Version 1
Format profile : Layer 2
Codec ID : A_MPEG/L2
Codec ID/Hint : MP2
Duration : 1h 43mn
Bit rate mode : Constant
Bit rate : 160 Kbps
Channel(s) : 2 channels
Sampling rate : 48.0 KHz
Compression mode : Lossy
Delay relative to video : 13ms
Stream size : 118 MiB (12%)
Default : Yes
Forced : No

Скриншот с названием постановки

Скриншоты




Показать сообщения:    

Текущее время: 03-Дек 16:46

Часовой пояс: UTC + 3


Вы не можете начинать темы
Вы не можете отвечать на сообщения
Вы не можете редактировать свои сообщения
Вы не можете удалять свои сообщения
Вы не можете голосовать в опросах
Вы не можете прикреплять файлы к сообщениям
Вы не можете скачивать файлы