Они поженились, и у них было много… (Сильвиан Фортюни) [2014, Россия, Азбука любви для детей, DVB] Театриум на Серпуховке


 

[Цитировать]

Они поженились, и у них было много…
Название театра: Театриум на Серпуховке
Страна: Россия
Жанр: Азбука любви для детей
Год выпуска: 2014
Продолжительность: 00:47:24
Перевод: Не требуется
Режиссёр: Сильвиан Фортюни
В ролях:
Нареченная - Эльвира Казанцева, Мария Павлова, Юлия Тарникова
Суженый - Владимир Седлецкий
Жюльетт Беккет - Вероника Ким, Александра Скоринова
Другой в сапогах - Евгений Казанцев, Евгений Мишечкин
Описание: Для зрителей от 12 лет. АЗБУКА ЛЮБВИ ДЛЯ ДЕТЕЙ! Серьезно, шутливо, целомудренно и просто. Совместная постановка «Театриума на Серпуховке» и французской компании Pour ainsi dire.Спектакль режиссера Сильвиан Фортюни с восемью артистами «Театриума на Серпуховке» тонко и с юмором показывает игру, которую так любят дети («ты будешь папой, ты – невестой, я – женихом» – аналог игры «Дочки-матери»). И обозначает ту зыбкую грань, за которой рождается подлинное чувство.
Доп. информация:
Автор пьесы - Филипп Дорен
Режиссер-постановщик, сценография - Сильвиан Фортюни
Музыкальный руководитель, аранжировка - Катрин Паве
Художник по костюмам - Сабин Сигвольт
Перевод пьесы - Римма Генкина
Хореограф - Артур Ощепков , Полина Савина
Художник по свету - Жан Улле , засл. раб-к культуры Владимир Евстифеев
Помощник режиссера - Мария Основикова , Анна Корнеева
Зав. постановочной частью - Сергей Никитин
Подробности - http://teatrium.ru/tabid/362/SpectacleId/71/Default.aspx ,
http://www.teatrium.ru/%D0%A2%D0%B5%D0%B0%D1%82%D1%...%8B20122013.aspx
Качество видео: DVB
Формат видео: MPEG2
Видео: MPEG2 Video 720x576 (16:9) 25fps 4000kbps [Video]
Аудио: Dolby AC3 48000Hz 2ch 192kbps [AC-3]

MediaInfo

Полное имя : E:\РАЗДАЧИ\Они поженились и у них было много\Они поженились и у них было много….mpg
Формат : MPEG-PS
Размер файла : 1,05 Гбайт
Продолжительность : 47 м.
Режим общего битрейта : Переменный
Общий поток : 3166 Кбит/сек
Библиотека кодирования : (c) 1998-2012 Womble Multimedia, Inc. / MPEG Video Wizard DVD 5.0.1.100 (03/2011) / Sep 22 2012
Видео
Идентификатор : 224 (0xE0)
Формат : MPEG Video
Версия формата : Version 2
Профиль формата : Main@Main
Параметр BVOP формата : Да
Параметр матрицы формата : По умолчанию
Продолжительность : 47 м.
Вид битрейта : Переменный
Битрейт : 2911 Кбит/сек
Ширина : 720 пикселей
Высота : 576 пикселей
Соотношение сторон : 16:9
Частота кадров : 25,000 кадров/сек
Стандарт вещания : PAL
Цветовое пространство : YUV
Субдискретизация насыщенности : 4:2:0
Битовая глубина : 8 бит
Тип развёртки : Прогрессивная
Метод сжатия : С потерями
Бит/(Пиксели*Кадры) : 0.281
Размер потока : 987 Мбайт (92%)
Библиотека кодирования : (c) 1998-2012 Womble Multimedia, Inc. / MPEG Video Wizard DVD 5.0.1.100 (03/2011) / Sep 22 2012
Аудио
Идентификатор : 189 (0xBD)-128 (0x80)
Формат : AC-3
Формат/Информация : Audio Coding 3
Расширение режима : CM (complete main)
Параметр Endianness формата : Big
Режим смешивания : DVD-Video
Продолжительность : 47 м.
Вид битрейта : Постоянный
Битрейт : 192 Кбит/сек
Каналы : 2 канала
Расположение каналов : Front: L R
Частота : 48,0 КГц
Битовая глубина : 16 бит
Метод сжатия : С потерями
Размер потока : 65,1 Мбайт (6%)

Скриншот с названием постановки

Скриншоты




Показать сообщения:    

Текущее время: 07-Дек 17:31

Часовой пояс: UTC + 3


Вы не можете начинать темы
Вы не можете отвечать на сообщения
Вы не можете редактировать свои сообщения
Вы не можете удалять свои сообщения
Вы не можете голосовать в опросах
Вы не можете прикреплять файлы к сообщениям
Вы не можете скачивать файлы