Пастух (Сергей Арцибашев, Павел Герасимов) [2000 г., театральная фантазия, TVRip] Российский государственный "Театр на Покровке" под руководством Сергея Арцибашева


 

[Цитировать]

Пастух Название театра: Российский государственный "Театр на Покровке" под руководством Сергея Арцибашева.
Год выпуска: 2000.
Жанр: театральная фантазия.
Продолжительность: 01:28:55.
Режиссер: заслуженный деятель искусств России Сергей Арцибашев, Павел Герасимов.
Действующие лица и исполнители:
Ленин - заслуженный деятель искусств России Сергей Арцибашев,
Она - Нина Красильникова,
Пианист - Сергей Арцибашев (младший),
Грузинские товарищи - Вадим Яцук, Виктор Яцук.
Описание:
Спектакль поставлен по пьесе известного российского писателя, драматурга и телеведущего Андрея Максимова. Сергей Арцибашев всю жизнь мечтал сыграть Ленина, и когда уже думал: все, не получится, прочитал эту пьесу и загорелся. Арцибашев обошелся без грима и бородки.
Владимир Ильич – наедине с женщиной! Он весь поглощен ею! Но кто - Она? Гостья из преисподней? Она принимает образ женщин, которых не то чтобы любил, но с которыми имел или хотел иметь отношения Ленин. Она уговаривает Ленина продать душу, предлагая за это всевозможные блага. Ленин в существование души не верит, но в конце концов, он требует, чтобы за душу (несуществующую) его превратили в бога. Силы преисподней сделать его богом не могут, поэтому сторговались на должности временно исполняющего роль бога - Пастухе. Сделка состоялась...

Дополнительная информация:
Страна: Россия .
Выпущено: © ГТРК "Культура".
Автор: Андрей Максимов.
Режиссер-постановщик спектакля: заслуженный деятель искусств России Сергей Арцибашев.
Художник-постановщик: Дмитрий Крымов.
Балетместер: Ольга Прихудайлова.
Художник по свету: Александр Еремин.
Музыкальное оформление: Павел Герасимов.
Режиссер телеверсии: Павел Герасимов.
Операторы: Александр Зимин, Артур Крашенинников.

Релиз

Качество видео: TVRip
Формат: AVI
Видео: 688x512 (1.34:1), 25 fps, XviD MPEG-4 ~2054 kbps avg, 0.23 bit/pixel
Аудио: 48 kHz, MPEG Layer 3, 2 ch, ~128.00 kbps avg

Отчет MediaInfo

Общее
Полное имя : Pastuh_Teatr.na.Pokrovke.2000.XviD.TVRip.fenixclub.avi
Формат : AVI
Формат/Информация : Audio Video Interleave
Размер файла : 1,36 Гбайт
Продолжительность : 1 ч. 28 м.
Общий поток : 2192 Кбит/сек
Программа кодирования : VirtualDubModRus 1.5.10.2 (build 2542/release)
Библиотека кодирования : VirtualDub build 32842/release
Видео
Идентификатор : 0
Формат : MPEG-4 Visual
Профиль формата : Advanced Simple@L5
Параметр BVOP формата : 2
Параметр QPel формата : Нет
Параметр GMC формата : Без точки перехода
Параметр матрицы формата : Default (H.263)
Режим смешивания : Сжатый битовый поток
Идентификатор кодека : XVID
Идентификатор кодека/Подсказка : XviD
Продолжительность : 1 ч. 28 м.
Битрейт : 2054 Кбит/сек
Ширина : 688 пикселей
Высота : 512 пикселей
Соотношение сторон : 4:3
Частота кадров : 25,000 кадров/сек
Цветовое пространство : YUV
Субдискретизация насыщенности : 4:2:0
Битовая глубина : 8 бит
Тип развёртки : Прогрессивная
Метод сжатия : С потерями
Бит/(Пиксели*Кадры) : 0.233
Размер потока : 1,28 Гбайт (94%)
Библиотека кодирования : XviD 1.2.1 (UTC 2008-12-04)
Аудио
Идентификатор : 1
Формат : MPEG Audio
Версия формата : Version 1
Профиль формата : Layer 3
Режим : Joint stereo
Расширение режима : MS Stereo
Идентификатор кодека : 55
Идентификатор кодека/Подсказка : MP3
Продолжительность : 1 ч. 28 м.
Вид битрейта : Постоянный
Битрейт : 128 Кбит/сек
Каналы : 2 канала
Частота : 48,0 КГц
Метод сжатия : С потерями
Размер потока : 81,4 Мбайт (6%)
Выравнивание : Разделение по промежуткам
Продолжительность промежутка : 40 мс. (1,00 видеокадр)
Время предзагрузки промежутка : 500 мс.
Библиотека кодирования : LAME3.99.5

Скриншоты

Альтернативный хост




Показать сообщения:    

Текущее время: 03-Дек 12:40

Часовой пояс: UTC + 3


Вы не можете начинать темы
Вы не можете отвечать на сообщения
Вы не можете редактировать свои сообщения
Вы не можете удалять свои сообщения
Вы не можете голосовать в опросах
Вы не можете прикреплять файлы к сообщениям
Вы не можете скачивать файлы