Гамлет (Юрий Бутусов, Игорь Ларин) [2006 г., драма, SATRip] Московский Художественный театр имени А. П. Чехова


 

[Цитировать]

Гамлет Театр: Московский Художественный театр имени А. П. Чехова.
Год выпуска: 2006.
Жанр: драма.
Продолжительность: 02:46:20.
Режиссеры: Юрий Бутусов, Игорь Ларин.
Действующие лица и исполнители:
Гамлет - Михаил Трухин,
Клавдий - Константин Хабенский,
Полоний - Михаил Пореченков,
Гертруда - заслуженная артистка России
Марина Голуб
,
Офелия – Ольга Литвинова,
Дух отца Гамлета, Актёр - народный артист России Сергей Сосновский,
Розенкранц – Олег Тополянский,
Гильденстерн – заслуженный артист России Алексей Агапов,
Актриса – Мария Зорина,
В Прологе, Сценах вне разряда и Непредвиденных сочинениях заняты артисты Михаил Трухин, Константин Хабенский, Михаил Пореченков.
О спектакле:
По трагедии Уильяма Шекспира в переводе Бориса Пастернака.
Сценическая версия произведения Шекспира "Гамлет". Эльсинор Юрия Бутусова — вневременное пространство на перекрестье ветров. Ибо не важно — где и когда повторяется вечное. Быть или не быть? Будь, что будет…
В этом спектакле очень мало участников — такое впечатление, что это некая «труппа» разыгрывает знакомый сюжет, на ходу меняя имена, маски и личины. Лицедейство, шутовство, притворство — здесь в ходу, это стиль жизни, ее философия. Здесь все и все время — паясничают, комикуют и фиглярствуют, Гамлет в этом смысле не только не исключение — напротив, играет абсолютно по заведенным правилам, и весьма умело (а что делать?). Но его фанфаронство — горькое, отчаянное, из последних сил. Следующая сцена спектакля — королевский совет. Внесли огромный, в длину сцены, стол. Сели. Клавдий — в ярко-красном пальто, вызывающем, теперь он тут хозяин. Разбойным свистом скликает «совет». Это, как говорится у Достоевского, — «все давешняя компания», поскольку никого «липшего» здесь нет, и можно сказать, что совершенно особая масштабность этой истории — в ее сугубой камерности, даже интимности. Гамлет ему вроде бы подыгрывает, только что не поддакивает, забавно шалит, хулиганит, король до поры до времени это терпит, ведь одногодки, возможно, что и однокашники. Трухин в этой сцене смешной, легкий, забавный… Хабенский — легкий натужно, словно постоянно ждет подвоха… Однако постепенно их шуточная перепалка меняет тональность, ибо Клавдий хоть и «свой», но, как выясняется, еще и «отец», оттого гамлетовское «не кажется… а есть./ Мне „кажется“ неведомо», — брошено резко, вызывающе, а следующие в ответ фарисейские увещевания Клавдия — фальшиво поучительно, одновременно с нескрываемой угрозой. Понятно становится: мальчики выросли, и уже совсем не вместе. Впечатление, что Гамлет дотягивает, доигрывает эту сцену — из последних сил, чтобы перед всеми не раскрыться, чтобы не поняли, до какой невозможной, нечеловеческой степени ему плохо. Потом, когда остается один, с монологом про отца, — такое страдание, и такое отчаяние, и такое резкое, судорожное взросление, словно мужчина вмиг вырос из костюмчика школьника-гимназистика. И ничего ему не понятно: как? Как возможно — такое предательство, неправда такая, такие человеческие метаморфозы…

Дополнительная информация:
Страна: Россия .
Выпущено: Студия фондовых и архивных программ © ГТРК "Культура".
Автор: Уильям Шекспир.
Перевод Бориса Пастернака.
Режиссёр-постановщик спектакля: Юрий Бутусов.
Художник-постановщик: Александр Шишкин.
Художник по свету: Евгений Ганзбург.
Балетмейстер: Николай Реутов.
Музыкальное решение: Юрия Бутусова.
Премьера спектакля состоялась 14.12.2005 года.
Режиссер телеверсии: Игорь Ларин.
Операторы: Владимир Иванов, Юрий Исаков, Татьяна Александрова, Алексей Аниканов, Владимир Деревянкин, Борис Новоселов, Михаил Самусев.
Телеверсия 2006 года.

Еще постеры


Релиз
Рип lesik689.

Качество видео:...SATRip
Формат:.................AVI
Видео:..704x528 (1.33:1), 25 fps, XviD MPEG-4 ~1605 kbps avg, 0.17 bit/pixel
Аудио:..48 kHz, MPEG Layer 3, 2 ch, ~128.00 kbps avg

Отчет Media Info

General
Complete name : Gamlet_MHT.im.4ekhova.2006.XviD.SATRip.fenixclub.avi
Формат : AVI
Формат/Информация : Audio Video Interleave
Профиль формата : OpenDML
Размер файла : 2,02 Гбайт
Продолжительность : 2 ч. 46 м.
Общий поток : 1741 Кбит/сек
Библиотека кодирования : MPlayer
Видео
Идентификатор : 0
Формат : MPEG-4 Visual
Профиль формата : Advanced Simple@L5
Параметр BVOP формата : 2
Параметр QPel формата : Нет
Параметр GMC формата : Без точки перехода
Параметр матрицы формата : Default (MPEG)
Режим смешивания : Сжатый битовый поток
Идентификатор кодека : XVID
Идентификатор кодека/Подсказка : XviD
Продолжительность : 2 ч. 46 м.
Битрейт : 1608 Кбит/сек
Ширина : 704 пикселя
Высота : 528 пикселей
Соотношение сторон : 4:3
Частота кадров : 25,000 кадров/сек
Цветовое пространство : YUV
Субдискретизация насыщенности : 4:2:0
Битовая глубина : 8 бит
Тип развёртки : Прогрессивная
Метод сжатия : С потерями
Бит/(Пиксели*Кадры) : 0.173
Размер потока : 1,87 Гбайт (92%)
Библиотека кодирования : XviD 64
Аудио
Идентификатор : 1
Формат : MPEG Audio
Версия формата : Version 1
Профиль формата : Layer 3
Режим : Joint stereo
Расширение режима : MS Stereo
Идентификатор кодека : 55
Идентификатор кодека/Подсказка : MP3
Продолжительность : 2 ч. 46 м.
Вид битрейта : Постоянный
Битрейт : 128 Кбит/сек
Каналы : 2 канала
Частота : 48,0 КГц
Метод сжатия : С потерями
Размер потока : 152 Мбайт (7%)
Выравнивание : Разделение по промежуткам
Продолжительность промежутка : 500 мс. (12,50 видеокадров)
Время предзагрузки промежутка : 500 мс.

Скриншоты


Альтернативный хост





Показать сообщения:    

Текущее время: 05-Дек 07:30

Часовой пояс: UTC + 3


Вы не можете начинать темы
Вы не можете отвечать на сообщения
Вы не можете редактировать свои сообщения
Вы не можете удалять свои сообщения
Вы не можете голосовать в опросах
Вы не можете прикреплять файлы к сообщениям
Вы не можете скачивать файлы