Пролётный гусь (Марина Брусникина) [2006 г., драма, DVDRip] Московский Художественный театр имени А. П. Чехова


 

[Цитировать]

Пролётный гусь Название театра: Московский Художественный театр имени А. П. Чехова.
Год выпуска: 2006.
Жанр: драма.
Продолжительность: 02:29:51.
Режиссер: заслуженная артистка России Марина Брусникина.
В ролях:
Кристина Бабушкина, Ксения Васильева, Янина Колесниченко, Елена Лемешко, Юлия Полынская, Наталья Рогожкина, Татьяна Розова, Алена Хованская, Юлия Чебакова, Дарья Юрская, Александр Арсентьев (Театр Пушкина), Павел Ващилин, Олег Мазуров, Олег Тополянский, Валерий Трошин, Эдуард Чекмазов.
О спектакле:
Все на этом свете вперемешку: горести и радости, безнадежное одиночество и семейные праздники, жизнь и смерть... Тонкий, щемящий спектакль режиссера Марины Брусникиной, поставленный по двум рассказам Виктора Астафьева — «Пролетный гусь» и «Бабушкин праздник» — посвящен памяти писателя.
В 2004 году создатели спектакля были удостоены Государственной премии РФ.
«Пролетный гусь» — история молодой семьи, совершенно случайно сложившейся в послевоенном поезде и застрявшей в городке с причудливым названием Чуфырино. И все бы, может, благополучно складывалось, если б здоровье мальчика не слабело день ото дня, а смерть его не подкосила бы родителей. Поэтический текст о незамысловатой будничной жизни сменяется любимыми народными песнями того времени. И голоса актеров в черном пространстве зала звучат спокойно, рисуя не тот сильный народ, выигравший войну, о котором писали в учебниках, а народ слабый, не способный вынести смерти ребенка, веривший в соединение душ на небесах.
В «Бабушкином празднике» идея непонятого русского менталитета очевиднее, нежели в первом произведении: герои говорят о празднике, о веселых бабушкиных именинах, которые раз в год обязательно собирают огромное семейство за большим деревянным столом, а клонят все равно к смерти, к тому, что всякому счастью и душевному благополучию не избежать конца. Настроение, однако же, в зале меняется. Поблескивающие бликами зеленые и красные бутафорские яблоки, такие сочные на вид, разгоняют грусть-тоску, и под застольные сибирские песни, исполняемые актерами без аккомпанемента, сердце так и подпрыгивает. Ничего нет приятнее воспоминаний о богатом домашними яствами, выпечкой и заквасками, настойками и самогонкой застолье, когда съезжаются только свои.

Дополнительная информация:
Страна: Россия .
Выпущено: Московский Художественный театр имени А. П. Чехова.
Автор: Виктор Астафьев.
Художественное оформление: Ирина Смурыгина-Терлицки.
Художник по свету: Мария Белозерцева.
Музыкальное оформление: Алена Хованская, Валерий Трошин.
Художественный руководитель театра: народный артист СССР Олег Табаков.

О спектакле.
Релиз
Рип sharky.

Качество видео:...DVDRip
Формат:.................AVI
Видео:..704x528 (1.33:1), 25 fps, XviD build 47 ~1879 kbps avg, 0.20 bit/pixel
Аудио:..48 kHz, AC3 Dolby Digital, 2/0 (L,R) ch, ~192 kbps

Отчет Media Info

General
Complete name : Prolyotnyj.gus'_MHT.im.4ehova.2006.XviD.DVDRip.fenixclub.avi
Формат : AVI
Формат/Информация : Audio Video Interleave
Профиль формата : OpenDML
Размер файла : 2,18 Гбайт
Продолжительность : 2 ч. 29 м.
Общий поток : 2078 Кбит/сек
Программа кодирования : VirtualDubMod 1.5.10.2 (build 2542/release)
Библиотека кодирования : VirtualDubMod build 2542/release
Видео
Идентификатор : 0
Формат : MPEG-4 Visual
Профиль формата : Advanced Simple@L5
Параметр BVOP формата : 1
Параметр QPel формата : Нет
Параметр GMC формата : Без точки перехода
Параметр матрицы формата : Default (H.263)
Идентификатор кодека : XVID
Идентификатор кодека/Подсказка : XviD
Продолжительность : 2 ч. 29 м.
Битрейт : 1874 Кбит/сек
Ширина : 704 пикселя
Высота : 528 пикселей
Соотношение сторон : 4:3
Частота кадров : 25,000 кадров/сек
Цветовое пространство : YUV
Субдискретизация насыщенности : 4:2:0
Битовая глубина : 8 бит
Тип развёртки : Прогрессивная
Метод сжатия : С потерями
Бит/(Пиксели*Кадры) : 0.202
Размер потока : 1,96 Гбайт (90%)
Библиотека кодирования : XviD 1.2.0.dev47 (UTC 2006-11-01)
Аудио
Идентификатор : 1
Формат : AC-3
Формат/Информация : Audio Coding 3
Расширение режима : CM (complete main)
Параметр Endianness формата : Big
Идентификатор кодека : 2000
Продолжительность : 2 ч. 29 м.
Вид битрейта : Постоянный
Битрейт : 192 Кбит/сек
Каналы : 2 канала
Расположение каналов : Front: L R
Частота : 48,0 КГц
Битовая глубина : 16 бит
Метод сжатия : С потерями
Размер потока : 206 Мбайт (9%)
Выравнивание : Разделение по промежуткам
Продолжительность промежутка : 40 мс. (1,00 видеокадр)
Время предзагрузки промежутка : 500 мс.

Скриншоты


Альтернативный хост





Показать сообщения:    

Текущее время: 10-Дек 06:09

Часовой пояс: UTC + 3


Вы не можете начинать темы
Вы не можете отвечать на сообщения
Вы не можете редактировать свои сообщения
Вы не можете удалять свои сообщения
Вы не можете голосовать в опросах
Вы не можете прикреплять файлы к сообщениям
Вы не можете скачивать файлы