Аленький цветочек (Алла Решетникова) [2012 г., сказка, WEB-DLRip] Московский областной государственный драматический камерный театр


 

[Цитировать]

Аленький цветочек Театр: Московский областной государственный драматический камерный театр.
Год выпуска: 2012.
Жанр: сказка.
Продолжительность: 01:11:10.
Режиссер: Алла Решетникова.
Действующие лица и исполнители:
Купец - заслуженный артист России Михаил Рогов,
Няня - заслуженная артистка России Алла Захарова,
Старшая дочь - Наталия Качалкина,
Средняя дочь - Юлия Пестова,
Младшая дочь - Наталья Кукушкина,
Скоморохи - Алексей Веретин, Алексей Гусаров,
Чудо - Евгений Гомоной,
Волшебница - Анна Полозова,
Жители деревни - Сергей Губанов, Андрей Исаенков, Александр Арюгов.
О спектакле:
Поэтический рассказ о прекрасной девушке, которая, полюбив не за красоту, а за доброту, осталась верна своему слову, весьма поучителен. Эту сказку любят, ею восторгаются, на ней воспитываются. И немудрено: ведь в ней собраны главные христианские заповеди. Нарушение их ведет к дисгармонии мира и личности. Соблюдение этих законов обещает радостную и долгую жизнь...
Дополнительная информация:
Страна: Россия .
Выпущено: Paragram Pictures.
Автор: Сергей Аксаков.
Инсценировка, постановка и сценография: Алла Решетникова.
Хореография: Анна Фролова и Юлия Варшавская.
Музыкальный редактор: Елена Гринцберг.
Художник-бутафор: Андрей Баранчуков.
Художник-оформитель: Дмитрий Курочкин.
Художник по костюмам: Елена Ярошенко.
Художник по свету: Лора Максимова.
Художественный руководитель театра: заслуженный артист России, заслуженный деятель искусств России Валерий Якунин.
Режиссер монтажа видеоверсии: Сергей Ширшов.
Оператор-постановщик: Сергей Смирнов.

О спектакле.
Релиз
Рип sharky.

Качество видео:...WEB-DLRip
Формат:.................AVI
Видео:..704x400 (1.76:1), 25 fps, DivX Codec 5.x or 6.x ~2057 kbps avg, 0.29 bit/pixel
Аудио:..44.100 kHz, MPEG Layer 3, 2 ch, ~128.00 kbps avg

Отчет Media Info

General
Complete name : Alen'kij.cveto4ek_MOGDKT.2012.DivX.WEB-DLRip.fenixclub.avi
Формат : AVI
Формат/Информация : Audio Video Interleave
Размер файла : 1,09 Гбайт
Продолжительность : 1 ч. 11 м.
Общий поток : 2195 Кбит/сек
Видео
Идентификатор : 0
Формат : MPEG-4 Visual
Параметр BVOP формата : 1
Параметр QPel формата : Нет
Параметр GMC формата : Без точки перехода
Параметр матрицы формата : Default (H.263)
Режим смешивания : Сжатый битовый поток
Идентификатор кодека : DX50
Идентификатор кодека/Подсказка : DivX 5
Продолжительность : 1 ч. 11 м.
Битрейт : 2057 Кбит/сек
Ширина : 704 пикселя
Высота : 400 пикселей
Соотношение сторон : 16:9
Частота кадров : 25,000 кадров/сек
Цветовое пространство : YUV
Субдискретизация насыщенности : 4:2:0
Битовая глубина : 8 бит
Тип развёртки : Прогрессивная
Метод сжатия : С потерями
Бит/(Пиксели*Кадры) : 0.292
Размер потока : 1,02 Гбайт (94%)
Заголовок : Video
Библиотека кодирования : DivX 3013
Аудио
Идентификатор : 1
Формат : MPEG Audio
Версия формата : Version 1
Профиль формата : Layer 3
Идентификатор кодека : 55
Идентификатор кодека/Подсказка : MP3
Продолжительность : 1 ч. 11 м.
Вид битрейта : Постоянный
Битрейт : 128 Кбит/сек
Каналы : 2 канала
Частота : 44,1 КГц
Метод сжатия : С потерями
Размер потока : 65,2 Мбайт (6%)
Выравнивание : Разделение по промежуткам
Продолжительность промежутка : 40 мс. (1,00 видеокадр)
Время предзагрузки промежутка : 500 мс.
Заголовок : Audio

Скриншот с названием постановки

Скриншоты


Альтернативный хост





Показать сообщения:    

Текущее время: 10-Дек 21:31

Часовой пояс: UTC + 3


Вы не можете начинать темы
Вы не можете отвечать на сообщения
Вы не можете редактировать свои сообщения
Вы не можете удалять свои сообщения
Вы не можете голосовать в опросах
Вы не можете прикреплять файлы к сообщениям
Вы не можете скачивать файлы