Реальность / Reality (Квентин Дюпье/Quentin Dupieux) [2014, Франция, Абсурд, сюрреализм, DVDRip] + Sub Rus + Original Eng


Статистика раздачи [Обновить пиров]
Размер:  548 MB   |    Зарегистрирован:  1 год 2 месяца   |    Скачан:  2 раза

Полного источника не было: 28 дней

 
   
 
 
 

[Цитировать]

Реальность / Reality
Страна: Франция/Бельгия
Жанр: Абсурд, сюрреализм
Год выпуска: 2014
Продолжительность: 1:27:10
Перевод: Субтитры
Cубтитры: русские
Оригинальная аудиодорожка: английский
Режиссер: Квентин Дюпье/Quentin Dupieux
В ролях: Ален Шаба
Элоди Буше
Эрик Вархейм
Джон Гловер
Джон Хидер
Описание: Джейсон — неприметный кинооператор, мечтающий снять свой первый фильм ужасов. Состоятельный продюсер Боб Маршалл соглашается финансировать его съёмки при одном условии: в течение 48 часов Джейсон должен отыскать самый впечатляющий крик за всю историю кино. В ходе своих поисков Джейсон постепенно погружается в настоящий кошмар.
Сэмпл: https://yadi.sk/i/EROU0R75jXfpN
Качество видео: DVDRip
Формат видео: AVI
Видео: Xvid 720x394 25.00fps 879 Kbps
Аудио: MPEG Audio 44.1 KHz 123 Kbps 2 channels
Формат субтитров: hardsub (неотключаемые)

MediaInfo

General
Complete name : E:\Q.Dupieux - Reality.avi
Format : AVI
Format/Info : Audio Video Interleave
File size : 548 MiB
Duration : 1h 27mn
Overall bit rate mode : Variable
Overall bit rate : 879 Kbps
Writing application : MEncoder r33883
Writing library : VirtualDub build 32706/release
Video
ID : 0
Format : MPEG-4 Visual
Format profile : Advanced Simple@L5
Format settings, BVOP : 2
Format settings, QPel : No
Format settings, GMC : No warppoints
Format settings, Matrix : Default (H.263)
Muxing mode : Packed bitstream
Codec ID : XVID
Codec ID/Hint : XviD
Duration : 1h 27mn
Bit rate : 744 Kbps
Width : 720 pixels
Height : 394 pixels
Display aspect ratio : 16:9
Frame rate : 25.000 fps
Color space : YUV
Chroma subsampling : 4:2:0
Bit depth : 8 bits
Scan type : Progressive
Compression mode : Lossy
Bits/(Pixel*Frame) : 0.105
Stream size : 464 MiB (85%)
Writing library : XviD 64
Audio
ID : 1
Format : MPEG Audio
Format version : Version 1
Format profile : Layer 3
Mode : Joint stereo
Mode extension : MS Stereo
Codec ID : 55
Codec ID/Hint : MP3
Duration : 1h 27mn
Bit rate mode : Variable
Bit rate : 123 Kbps
Channel(s) : 2 channels
Sampling rate : 44.1 KHz
Compression mode : Lossy
Stream size : 76.5 MiB (14%)
Alignment : Aligned on interleaves
Interleave, duration : 26 ms (0.65 video frame)
Interleave, preload duration : 135 ms
Writing library : LAME3.98.4

Скриншот c названием фильма

Скриншоты



[teatrix.ru].t5631.torrent 
Торрент: Зарегистрирован [ 2015-10-09 00:55 ] · 0B44095F7B58D8C55EABC805137EB4CB6184F1F2

Скачать .torrent

Скачать

11 KB

Статус: проверено
Скачан: 2 раз
Размер: 548 MB
terms.php



Быстрый ответ

Имя:

      
Для отправки сообщений необходимо включить JavaScript
Показать сообщения:    

Текущее время: 10-Дек 23:27

Часовой пояс: UTC + 3


Вы можете начинать темы
Вы можете отвечать на сообщения
Вы не можете редактировать свои сообщения
Вы не можете удалять свои сообщения
Вы не можете голосовать в опросах
Вы не можете прикреплять файлы к сообщениям
Вы можете скачивать файлы