Дочери / Töchter / Daughters (Мария Спет / Maria Speth) [2014, Германия, Драма, DVDRip-AVC] + Sub Rus + Original Ger


Статистика раздачи [Обновить пиров]
Размер:  1.44 GB   |    Зарегистрирован:  1 год 1 месяц   |    Скачан:  1 раз

Полного источника не было: 20 дней

 
   
 
 
 

[Цитировать]

Дочери / Töchter / Daughters
Страна: Германия
Жанр: Драма
Год выпуска: 2014
Продолжительность: 01:27:34
Перевод: Субтитры
Cубтитры: русские creo140
Оригинальная аудиодорожка: немецкий
Режиссер: Мария Спет / Maria Speth
В ролях: Коринна Кирчхофф, Кэтлин Моргенайр, Хироки Мано,Фабиан Хинрихс, Маттиас Мачке, Ларс Миккельсен, Ирина Потапенко
Описание: Агнес приехала в Берлин из провинции Гессе, на опознание своей сбежавшей дочери. И хотя это оказалась не её дочь Лидия, Агнес решает сама продолжить поиски дочери. Случайное знакомство с девушкой Инес, провокационное поведение и навязчивые вопросы которой, заставляют Агнес переосмыслить её отношения с дочерью.
Доп. информация: http://www.kinopoisk.ru/film/689086/
http://www.imdb.com/title/tt2188220/
Сэмпл: http://multi-up.com/1069544
Качество видео: DVDRip-AVC
Формат видео: MKV
Видео: MPEG4 Video (H264) 720x432
Аудио: Dolby AC3 48000Hz 6ch 448kbps
Формат субтитров: softsub (SRT)

Фрагмент субтитров

370
00:59:36,320 --> 00:59:39,119
И сейчас она тоже болеет.
Как ты не понимаешь?
371
00:59:40,680 --> 00:59:43,115
Как? Разве ты меня не слушаешь?
372
00:59:45,160 --> 00:59:47,720
Я сказала тебе, что она болеет
и не хочет уходить.
373
00:59:50,920 --> 00:59:54,038
Ты только представь себе!
Находиться в такой ужасной ситуации.
374
01:01:19,840 --> 01:01:20,796
Привет?
375
01:01:44,320 --> 01:01:45,595
Я ищу Инес.
376
01:01:46,240 --> 01:01:50,154
Я не видел её почти 6 месяцев.
377
01:01:51,440 --> 01:01:53,079
А разве это не её студия?
378
01:01:53,280 --> 01:01:56,114
Она сказала, что ей просто пришлось
сдать её на некоторое время.
379
01:01:59,040 --> 01:02:00,360
Ох, люди!
380
01:02:03,120 --> 01:02:04,474
Послушайте...
381
01:02:05,080 --> 01:02:07,197
Инес приходит и уходит,
когда ей вздумается,
382
01:02:07,440 --> 01:02:09,272
и забирает всё,
что она может забрать.
383
01:02:09,480 --> 01:02:10,709
Она мне нравится.
384
01:02:11,880 --> 01:02:13,872
Она милая.
- Конечно.
385
01:02:14,440 --> 01:02:16,433
Почему вы думаете,
я предложил ей работу?
386
01:02:16,440 --> 01:02:17,433
Поработать вместе со мной?
387
01:02:17,760 --> 01:02:19,399
Но она не смогла выдержать этого.
388
01:02:19,600 --> 01:02:22,399
Она сказала, что хочет
заниматься своими делами.
389
01:02:22,640 --> 01:02:24,950
Отлично, ладно, я подумал.
Поэтому и сказал ей:
390
01:02:25,160 --> 01:02:27,834
Ты можешь работать здесь
в любое время, когда захочешь.
391
01:02:29,040 --> 01:02:31,430
Что она и делала
время от времени.
392
01:02:31,760 --> 01:02:34,753
Но в основном,
она просто спала здесь.

MediaInfo

Format : Matroska
Format version : Version 4 / Version 2
File size : 1.44 GiB
Duration : 1h 27mn
Overall bit rate : 2 347 Kbps
Movie name : Maria Speth - (2014) Töchter
Encoded date : UTC 2015-04-13 05:06:22
Writing application : mkvmerge v7.8.0 ('River Man') 64bit built on Mar 27 2015 16:31:37
Writing library : libebml v1.3.1 + libmatroska v1.4.2
DURATION : 01:22:08.110000000
NUMBER_OF_FRAMES : 487
NUMBER_OF_BYTES : 16290
_STATISTICS_WRITING_APP : mkvmerge v7.8.0 ('River Man') 64bit built on Mar 27 2015 16:31:37
_STATISTICS_WRITING_DATE_UTC : 2015-04-13 05:06:22
_STATISTICS_TAGS : BPS DURATION NUMBER_OF_FRAMES NUMBER_OF_BYTES
Video
ID : 1
Format : AVC
Format/Info : Advanced Video Codec
Format profile : High@L3.1
Format settings, CABAC : Yes
Format settings, ReFrames : 14 frames
Codec ID : V_MPEG4/ISO/AVC
Duration : 1h 27mn
Bit rate : 1 852 Kbps
Width : 720 pixels
Height : 432 pixels
Display aspect ratio : 2.40:1
Frame rate mode : Constant
Frame rate : 25.000 fps
Color space : YUV
Chroma subsampling : 4:2:0
Bit depth : 8 bits
Scan type : Progressive
Bits/(Pixel*Frame) : 0.238
Stream size : 1.13 GiB (79%)
Writing library : x264 core 146 r2538kMod 121396c
Encoding settings : cabac=1 / ref=14 / deblock=1:-3:-3 / analyse=0x3:0x113 / me=umh / subme=10 / psy=1 / fade_compensate=0.00 / psy_rd=1.04:0.00 / mixed_ref=1 / me_range=32 / chroma_me=1 / trellis=2 / 8x8dct=1 / cqm=0 / deadzone=21,11 / fast_pskip=0 / chroma_qp_offset=-2 / threads=24 / lookahead_threads=3 / sliced_threads=0 / nr=0 / decimate=0 / interlaced=0 / bluray_compat=0 / constrained_intra=0 / fgo=0 / bframes=10 / b_pyramid=2 / b_adapt=2 / b_bias=0 / direct=3 / weightb=1 / open_gop=0 / weightp=2 / keyint=250 / keyint_min=25 / scenecut=40 / intra_refresh=0 / rc_lookahead=50 / rc=crf / mbtree=0 / crf=18.4000 / qcomp=0.75 / qpmin=0 / qpmax=69 / qpstep=4 / vbv_maxrate=17500 / vbv_bufsize=17500 / crf_max=0.0 / nal_hrd=none / filler=0 / ip_ratio=1.30 / pb_ratio=1.10 / aq=1:0.85
Language : German
Default : Yes
Forced : No
DURATION : 01:27:34.160000000
NUMBER_OF_FRAMES : 131354
NUMBER_OF_BYTES : 1245995877
_STATISTICS_WRITING_APP : mkvmerge v7.8.0 ('River Man') 64bit built on Mar 27 2015 16:31:37
_STATISTICS_WRITING_DATE_UTC : 2015-04-13 05:06:22
_STATISTICS_TAGS : BPS DURATION NUMBER_OF_FRAMES NUMBER_OF_BYTES
Audio
ID : 2
Format : AC-3
Format/Info : Audio Coding 3
Mode extension : CM (complete main)
Format settings, Endianness : Big
Codec ID : A_AC3
Duration : 1h 27mn
Bit rate mode : Constant
Bit rate : 448 Kbps
Channel(s) : 6 channels
Channel positions : Front: L C R, Side: L R, LFE
Sampling rate : 48.0 KHz
Compression mode : Lossy
Stream size : 281 MiB (19%)
Language : German
Default : Yes
Forced : No
Text #1
ID : 3
Format : UTF-8
Codec ID : S_TEXT/UTF8
Codec ID/Info : UTF-8 Plain Text
Title : SRT
Language : English
Default : Yes
Forced : Yes
Text #2
ID : 4
Format : UTF-8
Codec ID : S_TEXT/UTF8
Codec ID/Info : UTF-8 Plain Text
Title : SRT
Language : French
Default : No
Forced : No
Menu
00:00:00.000 : en:Chapter 1
00:03:44.920 : en:Chapter 2
00:08:21.200 : en:Chapter 3
00:14:18.080 : en:Chapter 4
00:20:37.280 : en:Chapter 5
00:31:18.560 : en:Chapter 6
00:38:45.960 : en:Chapter 7
00:44:51.800 : en:Chapter 8
00:50:27.440 : en:Chapter 9
01:00:57.240 : en:Chapter 10
01:08:27.720 : en:Chapter 11
01:16:47.440 : en:Chapter 12
01:22:46.600 : en:Chapter 13

Скриншот c названием фильма

[teatrix.ru].t5632.torrent 
Торрент: Зарегистрирован [ 2015-10-09 00:55 ] · 2B299573022360E601410CE64AB6C7ADF7A75767

Скачать .torrent

Скачать

15 KB

Статус: проверено
Скачан: 1 раз
Размер: 1.44 GB
terms.php



Быстрый ответ

Имя:

      
Для отправки сообщений необходимо включить JavaScript
Показать сообщения:    

Текущее время: 04-Дек 15:11

Часовой пояс: UTC + 3


Вы можете начинать темы
Вы можете отвечать на сообщения
Вы не можете редактировать свои сообщения
Вы не можете удалять свои сообщения
Вы не можете голосовать в опросах
Вы не можете прикреплять файлы к сообщениям
Вы можете скачивать файлы