Энтузиазм: Симфония Донбасса / Entuziazm: Simfoniya Donbassa (Дзига Вертов (Давид Кауфман) / Dziga Vertov) [1930, СССР, Документальный, немое кино, BDRip-AVC]


Статистика раздачи [Обновить пиров]
Размер:  1.09 GB   |    Зарегистрирован:  1 год 2 месяца   |    Скачан:  0 раз

Полного источника не было: Никогда

 
   
 
 
 

[Цитировать]

Энтузиазм: Симфония Донбасса / Entuziazm: Simfoniya Donbassa
Жанр: Документальный, немое кино
Страна: СССР
Студия: Украинфильм
Год выпуска: 1930
Продолжительность: 01:06:15
Перевод: Не требуется
Cубтитры: нет
Режиссер: Дзига Вертов (Давид Кауфман) / Dziga Vertov
Описание: Не озвученная, а звуковая киносимфония, проложившая дорогу на экран хроникальным звукам, организованным в симфонию – «одна из самых впечатляющих звукозрительных симфоний», как сказал об этом фильме Чаплин. В этом фильме Вертов сделал то, что в 60-е стало называться «конкретной музыкой», использующей реальные жизненные и промышленные шумы как составную часть музыкального образа. Киногруппа Вертова не только записала подлинные шумы и звуки, но впервые осуществила серию синхронных съемок – одновременную съемку изображения с записью звука.
Последний фильм снятый Вертовым на Украине. Один из первых звуковых документальных фильмов.
Дополнительная информация: Релиз:
Автор рипа: pmv
Исходник BD взят с HDclub.
IMDb = 7,2/10 from 396 users - http://www.imdb.com/title/tt0021375/
Кинопоиск = 7.466 (264) - http://www.kinopoisk.ru/film/41993/
Съёмки зрительно-звукового документального материала произведены на аппаратуре системы Шорина на месте событий. На шахтах, заводах и т.д.
В фильм включены: посвящённый «Симфонии Донбасса» марш композитора Тимофеева и заключительный аккорд из «Первомайской симфонии» Шостаковича.
Издание Lobster Films BluRay.
В фильме сохранен оригинальный саундтрек.
Премьера (СССР): 2 апреля 1931
Сценарист: Дзига Вертов
Операторы: Борис Ц(З)ейтлин
Звукооператор: Б.Штро
Композиторы: Николай Тимофеев, Дмитрий Шостакович
Ассистент режиссёра: Елизавета Свилова (Вертова)
ПРОСЬБА к СКАЧАВШИМ. НЕ УХОДИТЕ С РАЗДАЧИ, ПОМОГИТЕ ДРУГИМ СКАЧАТЬ!!!
ВНИМАНИЕ!!! РИП ФОРМАТА mkv (кодек H.264) ВОСПРОИЗВОДИТСЯ НЕ НА ВСЕХ БЫТОВЫХ ВИДЕОПЛЕЕРАХ!!!
Качество видео: BDRip-AVC
Формат видео: MKV
Видео: AVC (H264), 720x576 (5:4) 24.00 fps, ~ 2 213 Kbps avg, 0.222 Bits/Pixel
Аудио: AC3, 48 KHz, stereo (2 ch), 192 Kbps

MediaInfo

General
Complete name : D:\torrents\Энтузиазм_Симфония_Донбасса-Дз-Вертов-1930.mkv
Format : Matroska
File size : 1.09 GiB
Duration : 1h 6mn
Overall bit rate : 2 353 Kbps
Encoded date : UTC 2015-08-23 11:17:12
Writing application : mkvmerge v8.3.0 ('Over the Horizon') 64bit
Writing library : libebml v1.3.1 + libmatroska v1.4.2
Video
ID : 1
Format : AVC
Format/Info : Advanced Video Codec
Format profile : High@L4.0
Format settings, CABAC : Yes
Format settings, ReFrames : 16 frames
Muxing mode : Container profile=Unknown@4.0
Codec ID : V_MPEG4/ISO/AVC
Duration : 1h 6mn
Bit rate : 2 115 Kbps
Nominal bit rate : 2 160 Kbps
Width : 720 pixels
Height : 576 pixels
Display aspect ratio : 5:4
Frame rate : 24.000 fps
Standard : PAL
Resolution : 8 bits
Colorimetry : 4:2:0
Scan type : Progressive
Bits/(Pixel*Frame) : 0.212
Stream size : 1 002 MiB (90%)
Writing library : x264 core 146 r2538 121396c
Encoding settings : cabac=1 / ref=16 / deblock=1:0:0 / analyse=0x3:0x133 / me=umh / subme=10 / psy=1 / psy_rd=1.00:0.00 / mixed_ref=1 / me_range=24 / chroma_me=1 / trellis=2 / 8x8dct=1 / cqm=0 / deadzone=21,11 / fast_pskip=1 / chroma_qp_offset=-2 / threads=30 / lookahead_threads=4 / sliced_threads=0 / nr=0 / decimate=1 / interlaced=0 / bluray_compat=0 / constrained_intra=0 / bframes=8 / b_pyramid=2 / b_adapt=2 / b_bias=0 / direct=3 / weightb=1 / open_gop=0 / weightp=2 / keyint=250 / keyint_min=24 / scenecut=40 / intra_refresh=0 / rc_lookahead=60 / rc=2pass / mbtree=1 / bitrate=2160 / ratetol=1.0 / qcomp=0.60 / qpmin=0 / qpmax=69 / qpstep=4 / cplxblur=20.0 / qblur=0.5 / ip_ratio=1.40 / aq=1:1.00
Audio
ID : 2
Format : AC-3
Format/Info : Audio Coding 3
Codec ID : A_AC3
Duration : 1h 6mn
Bit rate mode : Constant
Bit rate : 192 Kbps
Channel(s) : 2 channels
Channel positions : Front: L R
Sampling rate : 48.0 KHz
Stream size : 91.0 MiB (8%)

Скриншот c названием фильма

[teatrix.ru].t5634.torrent 
Торрент: Зарегистрирован [ 2015-10-09 00:55 ] · 8E9D71CCED5B752654103697635891104989CC23

Скачать .torrent

Скачать

11 KB

Статус: проверено
Скачан: 0 раз
Размер: 1.09 GB
terms.php



Быстрый ответ

Имя:

      
Для отправки сообщений необходимо включить JavaScript
Показать сообщения:    

Текущее время: 11-Дек 09:09

Часовой пояс: UTC + 3


Вы можете начинать темы
Вы можете отвечать на сообщения
Вы не можете редактировать свои сообщения
Вы не можете удалять свои сообщения
Вы не можете голосовать в опросах
Вы не можете прикреплять файлы к сообщениям
Вы можете скачивать файлы