Ингмар Бергман. Интервью канадскому телевидению, 1970 год / An Ingmar Bergman Interview (Ингмар Бергман / Ingmar Bergman) [1970, Канада, документальный, VHSRip] VO (Ю.Медведев) + Original Eng


Статистика раздачи [Обновить пиров]
Размер:  262 MB   |    Зарегистрирован:  1 год 2 месяца   |    Скачан:  0 раз

Полного источника не было: Никогда

 
   
 
 
 

[Цитировать]

Ингмар Бергман. Интервью канадскому телевидению, 1970 год / An Ingmar Bergman Interview
Страна: Канада
Жанр: документальный
Год выпуска: 1970
Продолжительность: 00:20:53
Перевод: Одноголосый закадровый - Юрий Медведев
Cубтитры: нет
Оригинальная аудиодорожка: английский
Режиссер: Ингмар Бергман / Ingmar Bergman
В ролях: Ингмар Бергман
Описание: Данное интервью Ингмара Бергмана (на английском языке) является частью телевизионного цикла 1970 года "Man Alive" Канадской телерадиовещательной корпорации (Canadian Broadcasting Corporation). В этом интервью Бергман говорит о своих целях в качестве режиссера, о роли художника в обществе, о возможном отказе от внешнего, объективного Бога, рассказывает о своем первом кинопроекторе. Данное интервью позволяет лучше понять мировоззрение Бергмана и отражение этого мировоззрения в его фильмах. Качество интервью находится в плачевном состоянии, с неестественными цветами и другими недостатками, но в лучшем качестве это видео не существует.
Доп. информация:
Интервью Ингмара Бергмана 1970 года на английском языке скачано с KG, релизер – discoboy.
Перевод Юрия Медведева.
Сэмпл
Качество видео: VHSRip
Формат видео: AVI
Видео: 560х416, 23.976 fps, XviD, 1421 kbps, 0.254 bit/pixel
Аудио: Russian: AC-3, 2 ch, 48.0 KHz, 192 Kbps;
Аудио 2: English: MP3, 2 ch, 48.0 KHz, 121 Kbps

MediaInfo

Общее
Полное имя : C:\Users\user\Downloads\An Ingmar Bergman Interview (1970).avi
Формат : AVI
Формат/Информация : Audio Video Interleave
Размер файла : 262 Мбайт
Продолжительность : 20 м.
Режим общего битрейта : Переменный
Общий поток : 1752 Кбит/сек
Программа кодирования : VirtualDubModRus 1.5.10.2 (build 2540/release)
Библиотека кодирования : VirtualDubMod build 2540/release
Видео
Идентификатор : 0
Формат : MPEG-4 Visual
Профиль формата : Advanced Simple@L5
Параметр BVOP формата : 1
Параметр QPel формата : Нет
Параметр GMC формата : Без точки перехода
Параметр матрицы формата : Выборочная
Идентификатор кодека : XVID
Идентификатор кодека/Подсказка : XviD
Продолжительность : 20 м.
Битрейт : 1421 Кбит/сек
Ширина : 560 пикселей
Высота : 416 пикселей
Соотношение сторон : 4:3
Частота кадров : 23,976 кадра/сек
Цветовое пространство : YUV
Субдискретизация насыщенности : 4:2:0
Битовая глубина : 8 бит
Тип развёртки : Прогрессивная
Метод сжатия : С потерями
Бит/(Пиксели*Кадры) : 0.254
Размер потока : 212 Мбайт (81%)
Библиотека кодирования : XviD 1.0.2 (UTC 2004-08-29)
Аудио #1
Идентификатор : 1
Формат : AC-3
Формат/Информация : Audio Coding 3
Расширение режима : CM (complete main)
Параметр Endianness формата : Big
Идентификатор кодека : 2000
Продолжительность : 20 м.
Вид битрейта : Постоянный
Битрейт : 192 Кбит/сек
Каналы : 2 канала
Расположение каналов : Front: L R
Частота : 48,0 КГц
Битовая глубина : 16 бит
Метод сжатия : С потерями
Размер потока : 28,7 Мбайт (11%)
Выравнивание : Разделение по промежуткам
Продолжительность промежутка : 42 мс. (1,00 видеокадр)
Время предзагрузки промежутка : 500 мс.
Язык : English
Аудио #2
Идентификатор : 2
Формат : MPEG Audio
Версия формата : Version 1
Профиль формата : Layer 3
Режим : Joint stereo
Расширение режима : MS Stereo
Идентификатор кодека : 55
Идентификатор кодека/Подсказка : MP3
Продолжительность : 20 м.
Вид битрейта : Переменный
Битрейт : 121 Кбит/сек
Номинальный битрейт : 128 Кбит/сек
Каналы : 2 канала
Частота : 48,0 КГц
Метод сжатия : С потерями
Размер потока : 18,1 Мбайт (7%)
Выравнивание : Соединение по промежуткам
Продолжительность промежутка : 24 мс. (0,58 видеокадр)
Время предзагрузки промежутка : 464 мс.
Библиотека кодирования : LAME3.90.
Настройки программы : -m j -V 4 -q 2 -lowpass 17.6 --abr 128

Скриншот c названием фильма

Скриншоты

[teatrix.ru].t5635.torrent 
Торрент: Зарегистрирован [ 2015-10-09 00:55 ] · 1DDEB50B55089CE7652BB23B8754E78E7AA4F741

Скачать .torrent

Скачать

11 KB

Статус: проверено
Скачан: 0 раз
Размер: 262 MB
terms.php



Быстрый ответ

Имя:

      
Для отправки сообщений необходимо включить JavaScript
Показать сообщения:    

Текущее время: 10-Дек 15:49

Часовой пояс: UTC + 3


Вы можете начинать темы
Вы можете отвечать на сообщения
Вы не можете редактировать свои сообщения
Вы не можете удалять свои сообщения
Вы не можете голосовать в опросах
Вы не можете прикреплять файлы к сообщениям
Вы можете скачивать файлы