Слово / Ordet (Карл Теодор Дрейер / Carl Theodor Dreyer) [1955, Дания, драма, BDRip] VO + Sub Rus, Eng + Original Dan


 

[Цитировать]

Слово / Ordet
Страна: Дания
Жанр: драма
Год выпуска: 1955
Продолжительность: 02:05:31
Перевод: Одноголосый закадровый
Cубтитры: русские, английские
Оригинальная аудиодорожка: датский

Режиссер: Карл Теодор Дрейер / Carl Theodor Dreyer
В ролях: Хенрик Мальберг, Эйнер Федершпиль, Эмиль Хэсс Кристенсен, Кей Кристиансен, Биргитта Федершпиль, Пребен Лердорф Рей, Эдит Фране, Анн Элизабет Грот, Герда Нильсен, Сильвия Экхаузен
Описание: Действие фильма, поставленного по пьесе Кая Мунка вращается вокруг довольно большой группы персонажей. Отец семьи, Мортен Борген – упрямый и заносчивый крестьянин, домашний тиран, однако по-своему симпатичный. Он воспитан на религии и защищает то, что называет сам «развитым христианством»; он хочет, чтобы жизнь каждого члена его семьи зависела от него, но не понимает всех последствий своей власти, которые зачастую противоречат его намерениям. Его старший сын потерял веру, средний стал сумасшедшим, младший доведён до отчаяния религиозными противоречиями между его отцом и отцом его любимой. Последний, портной, в фанатизме и упорстве не уступает Боргену, но к тому же ещё и хитёр. Он не отдаёт свою дочь, надеясь, что когда-нибудь Борген уступит и что его религия восторжествует над религией противника. В центре этого мира мужчин находится женщина – Ингер...
Качество видео: BDRip
Формат видео: AVI
Видео: 656x480 (1.37:1), 24 fps, XviD build 73 ~1457 kbps avg, 0.19 bit/pixel
Аудио: 48 kHz, AC3 Dolby Digital, 2/0 (L,R) ch, ~192 kbps - одноголосый
Аудио: 48 kHz, AC3 Dolby Digital, 1/0 (C) ch, ~192 kbps - оригинал (отдельным файлом)

MediaInfo

Общее
Полное имя : H:\Ordet.1955.bdrip_[1.46]_[teko]\Ordet.1955.bdrip_[1.46].avi
Формат : AVI
Формат/Информация : Audio Video Interleave
Размер файла : 1,45 Гбайт
Продолжительность : 2 ч. 5 м.
Общий поток : 1659 Кбит/сек
Программа кодирования : VirtualDubMod 1.5.10.3 | www.virtualdub-fr.org || (build 2550/release)
Библиотека кодирования : VirtualDubMod build 2550/release
Видео
Идентификатор : 0
Формат : MPEG-4 Visual
Профиль формата : Advanced Simple@L5
Параметр BVOP формата : 1
Параметр QPel формата : Нет
Параметр GMC формата : Без точки перехода
Параметр матрицы формата : Выборочная
Идентификатор кодека : XVID
Идентификатор кодека/Подсказка : XviD
Продолжительность : 2 ч. 5 м.
Битрейт : 1458 Кбит/сек
Ширина : 656 пикселей
Высота : 480 пикселей
Соотношение сторон : 4:3
Частота кадров : 24,000 кадра/сек
Цветовое пространство : YUV
Субдискретизация насыщенности : 4:2:0
Битовая глубина : 8 бит
Тип развёртки : Прогрессивная
Метод сжатия : С потерями
Бит/(Пиксели*Кадры) : 0.193
Размер потока : 1,28 Гбайт (88%)
Библиотека кодирования : XviD 73
Аудио
Идентификатор : 1
Формат : AC-3
Формат/Информация : Audio Coding 3
Расширение режима : CM (complete main)
Параметр Endianness формата : Big
Идентификатор кодека : 2000
Продолжительность : 2 ч. 5 м.
Вид битрейта : Постоянный
Битрейт : 192 Кбит/сек
Каналы : 2 канала
Расположение каналов : Front: L R
Частота : 48,0 КГц
Битовая глубина : 16 бит
Метод сжатия : С потерями
Размер потока : 172 Мбайт (12%)
Выравнивание : Разделение по промежуткам
Продолжительность промежутка : 42 мс. (1,00 видеокадр)
Время предзагрузки промежутка : 500 мс.



Показать сообщения:    

Текущее время: 07-Дек 00:49

Часовой пояс: UTC + 3


Вы не можете начинать темы
Вы не можете отвечать на сообщения
Вы не можете редактировать свои сообщения
Вы не можете удалять свои сообщения
Вы не можете голосовать в опросах
Вы не можете прикреплять файлы к сообщениям
Вы не можете скачивать файлы