Преступления и проступки / Crimes and Misdemeanors (Вуди Аллен / Woody Allen) [1989, США, драма, мелодрама, комедия, DVDRip] AVO (Сербин)


Статистика раздачи [Обновить пиров]
Размер:  1.45 GB   |    Зарегистрирован:  1 год 3 месяца   |    Скачан:  0 раз

Полного источника не было: Никогда

 
   
 
 
 

[Цитировать]

Преступления и проступки / Crimes and Misdemeanors
Страна: США
Жанр: драма, мелодрама, комедия
Год выпуска: 1989
Продолжительность: 01:39:43
Перевод: Авторский (одноголосый закадровый) Сербин
Cубтитры: нет
Оригинальная аудиодорожка: нет
Режиссер: Вуди Аллен / Woody Allen
В ролях: Вуди Аллен, Мартин Ландау, Миа Фэрроу, Алан Алда, Анжелика Хьюстон, Джерри Орбак, Сэм Уотерстон, Клэр Блум, Кэролайн Аарон, Джоанна Глисон
Описание: Преуспевающий доктор Розенталь должен быть доволен жизнью. У него есть большой и красивый дом, любящая жена, дети и много друзей. Но наслаждаться размеренным существованием ему мешает бывшая любовница Долорес, с которой он провел несколько чудесных месяцев. Она почему-то решила, что он собирался оставить жену и жениться на ней.
Когда же ей стало ясно, что этого не произойдет, она поступает так, как, возможно, поступила бы любая другая женщина — письма и звонки, грозящие крахом семейному счастью и душевному благополучию. Понимая, что должны быть приняты эффективные меры, доктор обращается за помощью к своему брату — мафиози, который знает, как решить проблему.
Сэмпл: http://sendfile.su/1158941
Качество видео: DVDRip
Формат видео: AVI
Видео: 704x368 (1.91:1), 25 fps, XviD MPEG-4 ~1886 kbps avg, 0.29 bit/pixel
Аудио: 48 kHz, AC3 Dolby Digital, 2/0 (L,R) ch, ~192 kbps

MediaInfo

Формат : AVI
Формат/Информация : Audio Video Interleave
Размер файла : 1,45 Гбайт
Продолжительность : 1 ч. 39 м.
Общий поток : 2088 Кбит/сек
Программа кодирования : VirtualDub build 34807/releaseVirtualDubMod 1.5.10.3 || (build 2550/release)
Видео
Идентификатор : 0
Формат : MPEG-4 Visual
Профиль формата : Advanced Simple@L5
Параметр BVOP формата : 2
Параметр QPel формата : Нет
Параметр GMC формата : Без точки перехода
Параметр матрицы формата : Выборочная
Идентификатор кодека : XVID
Идентификатор кодека/Подсказка : XviD
Продолжительность : 1 ч. 39 м.
Битрейт : 1886 Кбит/сек
Ширина : 704 пикселя
Высота : 368 пикселей
Соотношение сторон : 1,913
Частота кадров : 25,000 кадров/сек
Цветовое пространство : YUV
Субдискретизация насыщенности : 4:2:0
Битовая глубина : 8 бит
Тип развёртки : Прогрессивная
Метод сжатия : С потерями
Бит/(Пиксели*Кадры) : 0.291
Размер потока : 1,31 Гбайт (90%)
Библиотека кодирования : XviD 73
Аудио
Идентификатор : 1
Формат : AC-3
Формат/Информация : Audio Coding 3
Расширение режима : CM (complete main)
Идентификатор кодека : 2000
Продолжительность : 1 ч. 39 м.
Вид битрейта : Постоянный
Битрейт : 192 Кбит/сек
Каналы : 2 канала
Расположение каналов : Front: L R
Частота : 48,0 КГц
Битовая глубина : 16 бит
Метод сжатия : С потерями
Размер потока : 137 Мбайт (9%)
Выравнивание : Соединение по промежуткам
Продолжительность промежутка : 40 мс. (1,00 видеокадр)
Время предзагрузки промежутка : 512 мс.
Язык : un

Скриншоты

[teatrix.ru].t5640.torrent 
Торрент: Зарегистрирован [ 2015-10-09 00:55 ] · 38B23E196AC9E80A58067BD68480A69785359441

Скачать .torrent

Скачать

30 KB

Статус: проверено
Скачан: 0 раз
Размер: 1.45 GB
terms.php



Быстрый ответ

Имя:

      
Для отправки сообщений необходимо включить JavaScript
Показать сообщения:    

Текущее время: 25-Янв 00:22

Часовой пояс: UTC + 3


Вы можете начинать темы
Вы можете отвечать на сообщения
Вы не можете редактировать свои сообщения
Вы не можете удалять свои сообщения
Вы не можете голосовать в опросах
Вы не можете прикреплять файлы к сообщениям
Вы можете скачивать файлы