Киноглаз / Кино-глаз / Kino-eye (Дзига Вертов (Давид Кауфман) / Dziga Vertov) [1924, СССР, Документальный, немое кино, BDRip-AVC]


Статистика раздачи [Обновить пиров]
Размер:  1.35 GB   |    Зарегистрирован:  1 год 2 месяца   |    Скачан:  0 раз

Полного источника не было: Никогда

 
   
 
 
 

[Цитировать]

Киноглаз / Кино-глаз / Kino-eye
Жанр: Документальный, немое кино
Страна: СССР
Студия: Культкино, Госкино
Год выпуска: 1924
Продолжительность: 01:18:29
Перевод: Не требуется
Cубтитры: нет
Режиссер: Дзига Вертов (Давид Кауфман) / Dziga Vertov
Описание: Документальный фильм о новом государстве — СССР. Представляет собой сборник небольших эпизодов о жизни Советского Союза, объединенных в серию «Жизнь врасплох». Большое внимание уделено детям и их пионерской организации. Также показаны кооперативы того времени, слон, борьба с туберкулезом, скорая медицинская помощь, сумасшедший дом, занятия по физике для рабочих...
«Киноглаз» — первый большой документальный фильм, который привлек к себе широкое внимание. Он был с огромным успехом показан также в Париже и премирован на Всемирной выставке 1925 года.
Дополнительная информация: Релиз:
Автор рипа: pmv
Исходник BD взят с HDclub.
IMDb = 7,4/10 from 514 users - http://www.imdb.com/title/tt0015039/
Кинопоиск = 7.781 (206) - http://www.kinopoisk.ru/film/44815/
* Киноплакат и тексты интертитров выполнены художником А.Родченко
* Фильм снимался в Москве и Подмосковье.
Премьера (СССР): 31 октября 1924
Сценарист: Дзига Вертов
Операторы: Михаил Кауфман
Музыка: Роберт Израэль / Robert Israel
Монтажёр: Елизавета Свилова (Вертова)
ПРОСЬБА к СКАЧАВШИМ. НЕ УХОДИТЕ С РАЗДАЧИ, ПОМОГИТЕ ДРУГИМ СКАЧАТЬ!!!
ВНИМАНИЕ!!! РИП ФОРМАТА mkv (кодек H.264) ВОСПРОИЗВОДИТСЯ НЕ НА ВСЕХ БЫТОВЫХ ВИДЕОПЛЕЕРАХ!!!
Качество видео: BDRip-AVC
Формат видео: MKV
Видео: AVC (H264), 720@768x576 (4:3) 24.00 fps, ~ 2 213 Kbps avg, 0.222 Bits/Pixel
Аудио: AC3, 48 KHz, stereo (2 ch), 192 Kbps

MediaInfo

General
Complete name : D:\torrents\немой-Кино-глаз-Д-Вертов-1924-BD.mkv
Format : Matroska
File size : 1.35 GiB
Duration : 1h 18mn
Overall bit rate : 2 454 Kbps
Encoded date : UTC 2015-08-23 11:14:28
Writing application : mkvmerge v8.3.0 ('Over the Horizon') 64bit
Writing library : libebml v1.3.1 + libmatroska v1.4.2
Video
ID : 1
Format : AVC
Format/Info : Advanced Video Codec
Format profile : High@L4.0
Format settings, CABAC : Yes
Format settings, ReFrames : 16 frames
Muxing mode : Container profile=Unknown@4.0
Codec ID : V_MPEG4/ISO/AVC
Duration : 1h 18mn
Bit rate : 2 213 Kbps
Nominal bit rate : 2 260 Kbps
Width : 720 pixels
Height : 576 pixels
Display aspect ratio : 4:3
Original display aspect ratio : 5:4
Frame rate : 24.000 fps
Standard : PAL
Resolution : 8 bits
Colorimetry : 4:2:0
Scan type : Progressive
Bits/(Pixel*Frame) : 0.222
Stream size : 1.21 GiB (90%)
Writing library : x264 core 146 r2538 121396c
Encoding settings : cabac=1 / ref=16 / deblock=1:0:0 / analyse=0x3:0x133 / me=umh / subme=10 / psy=1 / psy_rd=1.00:0.00 / mixed_ref=1 / me_range=24 / chroma_me=1 / trellis=2 / 8x8dct=1 / cqm=0 / deadzone=21,11 / fast_pskip=1 / chroma_qp_offset=-2 / threads=30 / lookahead_threads=4 / sliced_threads=0 / nr=0 / decimate=1 / interlaced=0 / bluray_compat=0 / constrained_intra=0 / bframes=8 / b_pyramid=2 / b_adapt=2 / b_bias=0 / direct=3 / weightb=1 / open_gop=0 / weightp=2 / keyint=250 / keyint_min=24 / scenecut=40 / intra_refresh=0 / rc_lookahead=60 / rc=2pass / mbtree=1 / bitrate=2260 / ratetol=1.0 / qcomp=0.60 / qpmin=0 / qpmax=69 / qpstep=4 / cplxblur=20.0 / qblur=0.5 / ip_ratio=1.40 / aq=1:1.00
Audio
ID : 2
Format : AC-3
Format/Info : Audio Coding 3
Codec ID : A_AC3
Duration : 1h 18mn
Bit rate mode : Constant
Bit rate : 192 Kbps
Channel(s) : 2 channels
Channel positions : Front: L R
Sampling rate : 48.0 KHz
Stream size : 108 MiB (8%)

Скриншот c названием фильма

[teatrix.ru].t5642.torrent 
Торрент: Зарегистрирован [ 2015-10-09 00:55 ] · 7B1911283BB0F223836789470C18F50F65D8640B

Скачать .torrent

Скачать

14 KB

Статус: проверено
Скачан: 0 раз
Размер: 1.35 GB
terms.php



Быстрый ответ

Имя:

      
Для отправки сообщений необходимо включить JavaScript
Показать сообщения:    

Текущее время: 11-Дек 14:53

Часовой пояс: UTC + 3


Вы можете начинать темы
Вы можете отвечать на сообщения
Вы не можете редактировать свои сообщения
Вы не можете удалять свои сообщения
Вы не можете голосовать в опросах
Вы не можете прикреплять файлы к сообщениям
Вы можете скачивать файлы