Китай - Срединное государство / Chung Kuo - Cina (Микеланджело Антониони / Michelangelo Antonioni) [1972, документальный, DVDRip] Sub Rus + original


Статистика раздачи [Обновить пиров]
Размер:  2.9 GB   |    Зарегистрирован:  1 год 1 месяц   |    Скачан:  0 раз

Полного источника не было: Никогда

 
   
 
 
 

[Цитировать]

Китай - Срединное государство / Chung Kuo - Cina
Год выпуска: 1972
Страна: Италия
Жанр: документальный
Продолжительность: 03:28:16
Перевод: Субтитры (2 вида)
Русские субтитры: Д.Юдашев, Animi
Оригинальная аудиодорожка: итальянский

Режиссер: Микеланджело Антониони / Michelangelo Antonioni
Описание: В разгар Культурной революции Антониони неожиданно получил исходящее от высших эшелонов власти (по слухам, от самого Чжоу Эньлая) приглашение в КНР для создания фильма о прекрасном новом Китае. Восемь недель съемочную группу возили по специально отобранным местам в Пекине, Нанкине, Сучжоу, Шанхае и провинции Хэнань.
Неусыпный контроль партийных товарищей не помешал режиссеру увидеть и показать свой Китай — не достижений, маршей и лозунгов, а человеческих историй и выражений лиц горожан и крестьян, малышей и школьников, роженицы и мастера тайцзицюань, на образцово-показательном рынке и в традиционном цирке. Фильм был сразу же запрещен Мао Цзэдуном и его кликой, сами китайцы смогли увидеть его лишь 30 лет спустя

качество: DVDRip
формат: AVI
Видео: 656x448 (1.46:1), 25 fps, XviD build 73 ~1794 kbps avg, 0.24 bit/pixel
Аудио: 48 kHz, AC3 Dolby Digital, 2/0 (L,R) ch, ~192 kbps

Фрагмент субтитров

285
01:29:36,360 --> 01:29:39,397
Они, наконец, дошли до ожидающей их семьи.
286
01:29:39,480 --> 01:29:41,516
Сегодня никаких серьезных
обсуждений не будет.
287
01:29:42,320 --> 01:29:45,437
Но, когда необходимо,
комитет может использовать
всю свою силу.
288
01:29:46,280 --> 01:29:48,430
Нам сказали, что комитет
может одобрить развод,
289
01:29:48,520 --> 01:29:53,389
но добавили, что это редкость.
290
01:29:53,440 --> 01:29:55,396
Обычно члены коммуны не ссорятся.
291
01:30:19,320 --> 01:30:21,515
Сейчас они обсуждают
взращивание и сбор урожая,
292
01:30:21,520 --> 01:30:26,275
ячмень и фасоль, необходимость
покупки трактора.
293
01:31:06,280 --> 01:31:11,308
Спальня. Зимой в этих
полостях разжигают огонь.
294
01:31:11,400 --> 01:31:15,393
Кирпичи накаляются
и тепла хватает на всю ночь.
295
01:31:48,480 --> 01:31:51,392
В Китае практически невозможно
увидеть страдания и сентименты.
296
01:31:51,480 --> 01:31:54,358
Они скрыты пристойностью и самообладанием.
297
01:32:00,440 --> 01:32:05,275
Мы спросили, можно ли
посмотреть на похороны, нам
ответили, что эти события очень личные.
298
01:32:05,400 --> 01:32:08,312
Китай - страна без кладбищ.
299
01:32:08,400 --> 01:32:13,349
Государство рекомендует кремацию.
Но в сельских районах, мертвых часто хоронят.
300
01:32:13,480 --> 01:32:19,316
Место захоронения должно
быть утверждено, но разрешение
получить несложно.

MediaInfo

ОбщееПолное имя : H:\Chung.Kuo-Cina.1972.dvdrip_[1.46]_[teko].aviФормат : AVIФормат/Информация : Audio Video InterleaveПрофиль формата : OpenDMLРазмер файла : 2,90 ГбайтПродолжительность : 3 ч. 28 м.Общий поток : 1993 Кбит/секПрограмма кодирования : VirtualDubMod 1.5.10.3 | www.virtualdub-fr.org || (build 2550/release)Библиотека кодирования : VirtualDubMod build 2550/release
ВидеоИдентификатор : 0Формат : MPEG-4 VisualПрофиль формата : Advanced Simple@L5Параметр BVOP формата : 1Параметр QPel формата : НетПараметр GMC формата : Без точки переходаПараметр матрицы формата : ВыборочнаяИдентификатор кодека : XVIDИдентификатор кодека/Подсказка : XviDПродолжительность : 3 ч. 28 м.Битрейт : 1791 Кбит/секШирина : 656 пикселейВысота : 448 пикселейСоотношение сторон : 3:2Частота кадров : 25,000 кадров/секЦветовое пространство : YUVСубдискретизация насыщенности : 4:2:0Битовая глубина : 8 битТип развёртки : ПрогрессивнаяМетод сжатия : С потерямиБит/(Пиксели*Кадры) : 0.244Размер потока : 2,60 Гбайт (90%)Библиотека кодирования : XviD 73
АудиоИдентификатор : 1Формат : AC-3Формат/Информация : Audio Coding 3Расширение режима : CM (complete main)Параметр Endianness формата : BigИдентификатор кодека : 2000Продолжительность : 3 ч. 28 м.Вид битрейта : ПостоянныйБитрейт : 192 Кбит/секКаналы : 2 каналаРасположение каналов : Front: L RЧастота : 48,0 КГцБитовая глубина : 16 битМетод сжатия : С потерямиРазмер потока : 286 Мбайт (10%)Выравнивание : Разделение по промежуткамПродолжительность промежутка : 40 мс. (1,00 видеокадр)Время предзагрузки промежутка : 500 мс.
[teatrix.ru].t5643.torrent 
Торрент: Зарегистрирован [ 2015-10-09 00:55 ] · 417FE78323923CF5FE15D921AB660A0F95B8C19F

Скачать .torrent

Скачать

15 KB

Статус: проверено
Скачан: 0 раз
Размер: 2.9 GB
terms.php



Быстрый ответ

Имя:

      
Для отправки сообщений необходимо включить JavaScript
Показать сообщения:    

Текущее время: 04-Дек 09:09

Часовой пояс: UTC + 3


Вы можете начинать темы
Вы можете отвечать на сообщения
Вы не можете редактировать свои сообщения
Вы не можете удалять свои сообщения
Вы не можете голосовать в опросах
Вы не можете прикреплять файлы к сообщениям
Вы можете скачивать файлы