Крысиная лихорадка / A Febre do Rato / Rat Fever (Клаудио Ассис / Cláudio Assis) [2011, Бразилия, Драма, DVDRip-AVC] (nestejatel) + Sub Rus


Статистика раздачи [Обновить пиров]
Размер:  1.61 GB   |    Зарегистрирован:  1 год 1 месяц   |    Скачан:  2 раза

Полного источника не было: 1 месяц 26 дней

 
   
 
 
 

[Цитировать]

Крысиная лихорадка / A Febre do Rato / Rat Fever
Страна: Бразилия
Жанр: Драма
Год выпуска: 2011
Продолжительность: 01:46:00
Перевод: Субтитры nestejatel
Cубтитры: русские
Оригинальная аудиодорожка: португальский
Режиссер: Клаудио Ассис / Cláudio Assis
В ролях: Ирандир Сантос / Irandhir Santos, Хулиано Чазарре / Juliano Cazarré, Матеус Нахтерэле / Matheus Nachtergaele
Описание: Несколько дней из жизни поэта, анархиста, революционера, гедониста, издателя и просто замечательного человека Зизо. Пока все его друзья наслаждаются жизнью, он томится от любви к "прекрасной" Энеиде.
Сэмпл: http://sendfile.su/1157316
Качество видео: DVDRip-AVC
Формат видео: MKV
Видео: 1 802 Kbps, 720*304 (2.35:1), 23.976 fps
Аудио: 384 Kbps, 48.0 Khz, 16 bits, 6 channels
Формат субтитров: softsub (SSA/ASS)

MediaInfo

General
Unique ID : 37009559786860567764711950370779821783 (0x1BD7C82D5D5D398C712258F3A2D9F6D7)
Complete name : C:\Users\Никита\Videos\A Febre do Rato AKA Rat Fever (2011)\A Febre do Rato AKA Rat Fever (2011).mkv
Format : Matroska
Format version : Version 4 / Version 2
File size : 1.61 GiB
Duration : 1h 45mn
Overall bit rate : 2 188 Kbps
Encoded date : UTC 2013-01-29 14:20:44
Writing application : mkvmerge v6.0.0 ('Coming Up For Air') built on Jan 20 2013 13:20:47
Writing library : libebml v1.3.0 + libmatroska v1.4.0
Video
ID : 1
Format : AVC
Format/Info : Advanced Video Codec
Format profile : Main@L5.1
Format settings, CABAC : Yes
Format settings, ReFrames : 2 frames
Codec ID : V_MPEG4/ISO/AVC
Duration : 1h 45mn
Bit rate : 1 802 Kbps
Width : 720 pixels
Height : 304 pixels
Display aspect ratio : 2.35:1
Frame rate mode : Constant
Frame rate : 23.976 fps
Color space : YUV
Chroma subsampling : 4:2:0
Bit depth : 8 bits
Scan type : Progressive
Bits/(Pixel*Frame) : 0.343
Stream size : 1.30 GiB (80%)
Writing library : x264 core 58 svn-736bm
Encoding settings : cabac=1 / ref=1 / deblock=1:0:0 / analyse=0x1:0x131 / me=hex / subme=5 / brdo=0 / mixed_ref=0 / me_range=16 / chroma_me=1 / trellis=1 / 8x8dct=0 / cqm=0 / deadzone=21,11 / chroma_qp_offset=0 / threads=2 / nr=0 / decimate=1 / mbaff=0 / bframes=2 / b_pyramid=0 / b_adapt=1 / b_bias=0 / direct=1 / wpredb=1 / bime=0 / keyint=250 / keyint_min=25 / scenecut=40(pre) / rc=2pass / bitrate=1802 / ratetol=1.0 / rceq='blurCplx^(1-qComp)' / qcomp=0.60 / qpmin=10 / qpmax=51 / qpstep=4 / cplxblur=20.0 / qblur=0.5 / ip_ratio=1.40 / pb_ratio=1.30
Language : English
Default : Yes
Forced : No
Audio
ID : 2
Format : AC-3
Format/Info : Audio Coding 3
Mode extension : CM (complete main)
Format settings, Endianness : Big
Codec ID : A_AC3
Duration : 1h 45mn
Bit rate mode : Constant
Bit rate : 384 Kbps
Channel(s) : 6 channels
Channel positions : Front: L C R, Side: L R, LFE
Sampling rate : 48.0 KHz
Bit depth : 16 bits
Compression mode : Lossy
Stream size : 290 MiB (18%)
Language : English
Default : Yes
Forced : No
Menu
00:00:00.000 : en:Ch. 01 @ 00:00:00
00:06:56.416 : en:Ch. 02 @ 00:06:56
00:17:24.543 : en:Ch. 03 @ 00:17:24
00:24:22.461 : en:Ch. 04 @ 00:24:22
00:33:20.999 : en:Ch. 05 @ 00:33:20
00:40:12.410 : en:Ch. 06 @ 00:40:12
00:47:20.337 : en:Ch. 07 @ 00:47:20
00:55:44.341 : en:Ch. 08 @ 00:55:44
01:05:01.397 : en:Ch. 09 @ 01:05:01
01:14:14.950 : en:Ch. 10 @ 01:14:14
01:26:06.661 : en:Ch. 11 @ 01:26:06
01:34:56.691 : en:Ch. 12 @ 01:34:56

Скриншот c названием фильма

Скриншоты

[teatrix.ru].t5644.torrent 
Торрент: Зарегистрирован [ 2015-10-09 00:55 ] · 2BA20A89352A15F11DE5D33501283B5858B4EDD0

Скачать .torrent

Скачать

17 KB

Статус: проверено
Скачан: 2 раз
Размер: 1.61 GB
terms.php



Быстрый ответ

Имя:

      
Для отправки сообщений необходимо включить JavaScript
Показать сообщения:    

Текущее время: 04-Дек 19:21

Часовой пояс: UTC + 3


Вы можете начинать темы
Вы можете отвечать на сообщения
Вы не можете редактировать свои сообщения
Вы не можете удалять свои сообщения
Вы не можете голосовать в опросах
Вы не можете прикреплять файлы к сообщениям
Вы можете скачивать файлы