Мятный коктейль со льдом / Peppermint Frappe (Карлос Саура / Carlos Saura) [1967, Испания, Драма, DVDRip] DVO + Original Spa


Статистика раздачи [Обновить пиров]
Размер:  1.46 GB   |    Зарегистрирован:  1 год 1 месяц   |    Скачан:  1 раз

Полного источника не было: 4 месяца 26 дней

 
   
 
 
 

[Цитировать]

Мятный коктейль со льдом / Peppermint Frappé Страна: Испания
Жанр: Драма
Год выпуска: 1967
Продолжительность: 01:29:55
Перевод: Профессиональный (двухголосый закадровый) - тот же, что на телеканале «TVXXI»
Cубтитры: нет
Оригинальная аудиодорожка: испанская
Режиссер: Карлос Саура / Carlos Saura
В ролях: Джеральдин Чаплин, Хосе Луис Лопес Васкес, Альфредо Майо, Эмильяно Редондо, Мария Хосе Карфоле, Франциско Венегас, Педро Луис Лозаньо, Виктор Мануэль Морено, Ана Мария Кустодио, Фернандо Санчес Полак.
Описание: Центральный персонаж фильма — представитель среднего класса, чей благопристойный и консервативный образ жизни подтачивается внутренним противоречием. Приверженец классической музыки и поэзии, соблюдающий религиозный культ, довольно любезный и благожелательный человек, он становится жертвой пропагандируемого модными журналами образа «современной» женщины, получившей в своё распоряжение целый арсенал орудий обольщения. Этот образ становится его самой большой страстью, порождая болезненную раздвоенность.


Качество видео: DVDRip
Формат видео: AVI
Видео: 704x400 (1.76:1), 25 fps, XviD build 50 ~1920 kbps avg, 0.27 bit/pixel
Аудио 1: 48 kHz, AC3 Dolby Digital, 2/0 (L,R) ch, ~192 kbps - Rus
Аудио 2: 48 kHz, AC3 Dolby Digital, 2/0 (L,R) ch, ~192 kbps - Esp

MediaInfo

General
Complete name : D:\Public\Peppermint.Frappe.(1967).DVDRip.Rus-Esp.avi
Format : AVI
Format/Info : Audio Video Interleave
File size : 1.46 GiB
Duration : 1h 29mn
Overall bit rate : 2 320 Kbps
Writing application : VirtualDubMod 1.5.10.2 (build 2542/release)
Writing library : VirtualDubMod build 2542/release
Video
ID : 0
Format : MPEG-4 Visual
Format profile : Advanced Simple@L5
Format settings, BVOP : 1
Format settings, QPel : No
Format settings, GMC : No warppoints
Format settings, Matrix : Default (MPEG)
Codec ID : XVID
Codec ID/Hint : XviD
Duration : 1h 29mn
Bit rate : 1 922 Kbps
Width : 704 pixels
Height : 400 pixels
Display aspect ratio : 16:9
Frame rate : 25.000 fps
Color space : YUV
Chroma subsampling : 4:2:0
Bit depth : 8 bits
Scan type : Progressive
Compression mode : Lossy
Bits/(Pixel*Frame) : 0.273
Stream size : 1.21 GiB (83%)
Writing library : XviD 1.2.1 (UTC 2008-12-04)
Audio #1
ID : 1
Format : AC-3
Format/Info : Audio Coding 3
Mode extension : CM (complete main)
Codec ID : 2000
Duration : 1h 29mn
Bit rate mode : Constant
Bit rate : 192 Kbps
Channel(s) : 2 channels
Channel positions : Front: L R
Sampling rate : 48.0 KHz
Bit depth : 16 bits
Compression mode : Lossy
Stream size : 123 MiB (8%)
Alignment : Split accross interleaves
Interleave, duration : 40 ms (1.00 video frame)
Interleave, preload duration : 500 ms
Title : Rus
Audio #2
ID : 2
Format : AC-3
Format/Info : Audio Coding 3
Mode extension : CM (complete main)
Codec ID : 2000
Duration : 1h 29mn
Bit rate mode : Constant
Bit rate : 192 Kbps
Channel(s) : 2 channels
Channel positions : Front: L R
Sampling rate : 48.0 KHz
Bit depth : 16 bits
Compression mode : Lossy
Stream size : 123 MiB (8%)
Alignment : Split accross interleaves
Interleave, duration : 40 ms (1.00 video frame)
Interleave, preload duration : 500 ms
Title : Esp

Скриншот c названием фильма

Скриншоты

[teatrix.ru].t5646.torrent 
Торрент: Зарегистрирован [ 2015-10-09 00:55 ] · 6FF2477BC938ACDF1E20A489D97885FF831093D2

Скачать .torrent

Скачать

15 KB

Статус: проверено
Скачан: 1 раз
Размер: 1.46 GB
terms.php



Быстрый ответ

Имя:

      
Для отправки сообщений необходимо включить JavaScript
Показать сообщения:    

Текущее время: 07-Дек 19:29

Часовой пояс: UTC + 3


Вы можете начинать темы
Вы можете отвечать на сообщения
Вы не можете редактировать свои сообщения
Вы не можете удалять свои сообщения
Вы не можете голосовать в опросах
Вы не можете прикреплять файлы к сообщениям
Вы можете скачивать файлы