В подвале / Im Keller (Ульрих Зайдль / Ulrich Seidl) [2014, Австрия, Документальный, DVDRip] Sub Rus + Original Ger


Статистика раздачи [Обновить пиров]
Размер:  725 MB   |    Зарегистрирован:  1 год 1 месяц   |    Скачан:  1 раз

Полного источника не было: 10 месяцев 13 дней

 
   
 
 
 

[Цитировать]

В подвале / Im Keller
Страна: Австрия
Жанр: Документальный
Год выпуска: 2014
Продолжительность: 01:21:43
Перевод: Субтитры (автор: kornickolay)
Cубтитры: русские
Оригинальная аудиодорожка: немецкий
Режиссер: Ульрих Зайдль / Ulrich Seidl
В ролях: Фриц Лэнг, Альфреда Клебингер, Манфред Элингер, Инге Эллингер, Джозеф Окс, Алесса Душек, Джералд Душек, Кора Китти, Уолтер Хольцер
Описание: Фильм демонстрирует череду подвалов благополучных австрийцев, где они проводят гораздо больше времени, нежели в жилой части своих домов. Именно в подвалах протекает их интимная жизнь, реализуются глубинные помыслы и мечты. В одном подвале компания мужчин пьет пиво и распевает нацистские песни под портретами Гитлера; в другом доминатрикс проводит своего раба-мазохиста через всю череду садистских унижений — к полному взаимному удовлетворению; в третьем домохозяйка пост-бальзаковского возраста с неподдельной нежностью ласкает своих кукольных младенцев…
Доп. информация: Субтитры по традиции переводил сам с английских. О вопросах и претензиях к переводу высказываться не возбраняется. Приятного просмотра.
Страница на кинопоиске: http://www.kinopoisk.ru/film/841997/
Страница на imdb.com: http://www.imdb.com/title/tt3962828/
Сэмпл: https://yadi.sk/d/hF2p1BLKjCPGT
Качество видео: DVDRip
Формат видео: AVI
Видео: 720 x 384 (15:8), 25.000 fps, DivX Codec 4, ~1103 kbps avg, 0.160 bit/pixel
Аудио: MPEG Audio Layer 3, 48000Hz, stereo, 128kbps
Формат субтитров: softsub (SRT)

MediaInfo

General
Complete name: D:\Downloads\V_Podvale_[rutracker.org]\Im Keller [Ulrich Seidl].avi
Format: AVI
Format/Info: Audio Video Interleave
File size: 725 MiB
Duration: 1h 21mn
Overall bit rate: 1 241 Kbps
Writing application: VirtualDubMod 1.5.10.3 | www.virtualdub-fr.org || (build 2550/release)
Writing library: VirtualDubMod build 2550/release
Video
ID: 0
Format: MPEG-4 Visual
Format profile: Advanced Simple@L5
Format settings, BVOP: 1
Format settings, QPel: No
Format settings, GMC: No warppoints
Format settings, Matrix: Default (H.263)
Codec ID: DIVX
Codec ID/Info: Project Mayo
Codec ID/Hint: DivX 4
Duration: 1h 21mn
Bit rate: 1 103 Kbps
Width: 720 pixels
Height: 384 pixels
Display aspect ratio: 1.85:1
Frame rate: 25.000 fps
Color space: YUV
Chroma subsampling: 4:2:0
Bit depth: 8 bits
Scan type: Progressive
Compression mode: Lossy
Bits/(Pixel*Frame): 0.160
Stream size: 645 MiB (89%)
Writing library: XviD 1.2.1 (UTC 2008-12-04)
Audio
ID: 1
Format: MPEG Audio
Format version: Version 1
Format profile: Layer 3
Codec ID: 55
Codec ID/Hint: MP3
Duration: 1h 21mn
Bit rate mode: Constant
Bit rate: 128 Kbps
Channel(s): 2 channels
Sampling rate: 48.0 KHz
Compression mode: Lossy
Stream size: 74.8 MiB (10%)
Alignment: Aligned on interleaves
Interleave, duration: 40 ms (1.00 video frame)
Interleave, preload duration: 504 ms
Writing library: LAME3.99r
Encoding settings: -m s -V 4 -q 2 -lowpass 17 -b 128

Пример субтитров:

99
00:01:50,640 --> 00:01:55,441
Они насиловали женщин, чтобы
показать: "Теперь вы наши.
100
00:01:55,680 --> 00:01:58,047
Теперь вы - наши вещи."
101
00:01:58,560 --> 00:02:00,801
Знаешь об этом?
102
00:02:00,880 --> 00:02:06,205
- В средней школе я проходил по истории.
- Значит, ты знаешь, если не прогуливал.
103
00:02:07,200 --> 00:02:12,570
Знаешь, что бы я запретил в Австрии
в первую очередь? Бурку.
104
00:02:13,360 --> 00:02:16,728
Ни одна женщина Австрии не должна это носить.
105
00:02:16,960 --> 00:02:20,567
- Я своими глазами видел в Шёнбрунне...
- Этого нет в Коране.
106
00:02:20,680 --> 00:02:21,841
Это придумали мужчины.
107
00:02:22,040 --> 00:02:27,365
- Я видел, парень шел впереди...
- Ревнивые, опасные мужчины...
108
00:02:27,480 --> 00:02:31,199
Его жена полностью закрыта. Видны лишь глаза.
109
00:02:31,200 --> 00:02:34,409
Вы бы не поверили, как было жарко.
И одеты во всё чёрное.
110
00:02:34,520 --> 00:02:36,170
В супермаркете, можете у моей жены спросить.
111
00:02:36,520 --> 00:02:39,171
Он в шортах, на руках сын,
112
00:02:39,280 --> 00:02:44,207
позади жена и дочь в чёрном с ног до головы.
113
00:02:44,320 --> 00:02:46,971
- Оставляли след пота за собой...
- Запах от них был отвратительный.
114
00:02:48,040 --> 00:02:50,202
Люди, которые это отрицают,...
115
00:02:50,280 --> 00:02:53,523
врут себе. Или они без мозгов.
116
00:02:53,600 --> 00:02:58,925
- И так веками...
- Плохой у них опыт...
117
00:02:59,080 --> 00:03:01,481
Отстали на несколько столетий.
118
00:03:05,160 --> 00:03:07,481
- На 500 лет.

Скриншот c названием фильма

Скриншоты

[teatrix.ru].t5649.torrent 
Торрент: Зарегистрирован [ 2015-10-09 00:55 ] · 561F9F0CFFF974CAAFA6953D9921EB09AE708C8C

Скачать .torrent

Скачать

29 KB

Статус: проверено
Скачан: 1 раз
Размер: 725 MB
terms.php



Быстрый ответ

Имя:

      
Для отправки сообщений необходимо включить JavaScript
Показать сообщения:    

Текущее время: 08-Дек 23:04

Часовой пояс: UTC + 3


Вы можете начинать темы
Вы можете отвечать на сообщения
Вы не можете редактировать свои сообщения
Вы не можете удалять свои сообщения
Вы не можете голосовать в опросах
Вы не можете прикреплять файлы к сообщениям
Вы можете скачивать файлы