Тайна Алексины / Mystere Alexina (Рене Фере / Rene Feret) [1985, Франция, драма, DVDRip-AVC] + Sub Rus + Original Fre


Статистика раздачи [Обновить пиров]
Размер:  1.27 GB   |    Зарегистрирован:  1 год 1 месяц   |    Скачан:  0 раз

Полного источника не было: Никогда

 
   
 
 
 

[Цитировать]

Тайна Алексины / Mystere Alexina
Страна: Франция
Жанр: драма
Год выпуска: 1985
Продолжительность: 01:20:19
Перевод: Субтитры
Cубтитры: русские
Оригинальная аудиодорожка: французский
Режиссер: Рене Фере / Rene Feret
В ролях: Филипп Вилемен/Philippe Vuillemin, Валери Стро/Valérie Stroh, Вероник Сильвер/Véronique Silver, Бернар Фрейд/Bernard Freyd, Марианн Баслер/Marianne Basler, Пьер Виаль/Pierre Vial, Филипп Клевено/ Philippe Clévenot, Изабель Грюо/Isabelle Gruault, Люсьенн Амон/Lucienne Hamon, Клод Бушери/Claude Bouchery
Описание: Середина XIX века. Молодая девушка по имени Алексина Барбен, закончив обучение учительскому ремеслу, приезжает работать в школу для девочек. Там её хорошо принимают, она хорошо работает, но есть в ней нечто загадочное. Она всё время находится как бы в стороне. А потом оказывается, что Алексина влюблена в молодую учительницу Сару.
Фильм Рене Фере снят о жизни Эркюлина (в фильме – Камий) Барбена, автобиографию которого/которой отыскал Мишель Фуко, составив в 1978 году сборник «Эркюлин Барбен, известная также как Алексина Б.».
Доп. информация: Перевод – daft-digger, тайминг – alex-kin.
Файл взят с Карагарги, за что благодарим endrju.

Цикл кинокритических статей «Вокруг Фуко»

Алексей Тютькин. Рене. Фере. Круг замкнулся http://kinoart.ru/blogs/krug-zamknulsya
Алексей Тютькин. Рене Аллио. Убийство на грани мечты http://www.kinoart.ru/blogs/rene-allio-ubijstvo-na-grani-mechty
Алексей Тютькин. Николя Филибер. Праздник безумцев http://kinoart.ru/blogs/prazdnik-bezumtsev
Сэмпл: http://multi-up.com/1066567
Качество видео: DVDRip-AVC
Формат видео: MKV
Видео: V_MPEG4/ISO/AVC at 1978 kbps, 0.220 bit/pixel, 656x572 at 24 fps
Аудио: AC-3 at 192.00 kbps, 2/0 (L,R) ch, 48 kHz
Формат субтитров: softsub (SRT)

MediaInfo

Формат : Matroska
Размер файла : 1,27 Гбайт
Продолжительность : 1 ч. 23 м.
Общий поток : 2170 Кбит/сек
Дата кодирования : UTC 2015-09-06 17:25:28
Программа кодирования : mkvmerge v6.9.1 ('Blue Panther') 32bit built on Apr 18 2014 18:15:44
Библиотека кодирования : libebml v1.3.0 + libmatroska v1.4.1
Видео
Идентификатор : 1
Формат : AVC
Формат/Информация : Advanced Video Codec
Профиль формата : High@L3.1
Параметр CABAC формата : Да
Параметр ReFrames формата : 10 кадры
Идентификатор кодека : V_MPEG4/ISO/AVC
Продолжительность : 1 ч. 23 м.
Битрейт : 1978 Кбит/сек
Ширина : 656 пикс.
Высота : 572 пикс.
Соотношение сторон : 1,629
Соотношение сторон в оригинале : 1,631
Частота кадров : 24,000 кадр/сек
Цветовое пространство : YUV
Подвыборка цветности : 4:2:0
Битовая глубина : 8 бит
Тип развёртки : Прогрессивная
Бит/(Пиксели*Кадры) : 0.220
Размер потока : 1,13 Гбайт (89%)
Библиотека кодирования : x264 core 146 r2538 121396c
Настройки программы : cabac=1 / ref=10 / deblock=1:-3:-3 / analyse=0x3:0x133 / me=umh / subme=11 / psy=1 / psy_rd=1.00:0.15 / mixed_ref=1 / me_range=32 / chroma_me=1 / trellis=2 / 8x8dct=1 / cqm=0 / deadzone=21,11 / fast_pskip=0 / chroma_qp_offset=-3 / threads=12 / lookahead_threads=3 / sliced_threads=0 / nr=0 / decimate=0 / interlaced=0 / bluray_compat=0 / constrained_intra=0 / bframes=16 / b_pyramid=2 / b_adapt=2 / b_bias=0 / direct=3 / weightb=1 / open_gop=0 / weightp=2 / keyint=240 / keyint_min=24 / scenecut=40 / intra_refresh=0 / rc_lookahead=100 / rc=2pass / mbtree=0 / bitrate=1978 / ratetol=3.0 / qcomp=0.60 / qpmin=0 / qpmax=69 / qpstep=4 / cplxblur=20.0 / qblur=0.5 / vbv_maxrate=14000 / vbv_bufsize=14000 / nal_hrd=none / filler=0 / ip_ratio=1.40 / pb_ratio=1.30 / aq=1:1.00
Язык : English
Аудио
Идентификатор : 2
Формат : AC-3
Формат/Информация : Audio Coding 3
Расширение режима : CM (complete main)
Идентификатор кодека : A_AC3
Продолжительность : 1 ч. 23 м.
Вид битрейта : Постоянный
Битрейт : 192 Кбит/сек
Канал(ы) : 2 канала(ов)
Расположение каналов : Front: L R
Частота : 48,0 КГц
Битовая глубина : 16 бит
Метод сжатия : С потерями
Размер потока : 115 Мбайт (9%)

Фрагмент субтитров

1
00:00:22,833 --> 00:00:24,824
ТАЙНА АЛЕКСИНЫ
2
00:00:41,674 --> 00:00:47,894
Продюсер и режиссер
Рене Фере
3
00:00:48,875 --> 00:00:50,957
Алексина была реальным человеком,
4
00:00:51,125 --> 00:00:53,833
жившей во Франции
в регионе Ла-Рошель,
5
00:00:54,000 --> 00:00:56,992
в середине 19-го века...
6
00:02:26,208 --> 00:02:28,666
- Вы учительница?
- Да.
7
00:02:28,857 --> 00:02:29,620
Давайте.
8
00:03:00,292 --> 00:03:03,990
Ла-Рошель, 26 августа 1858.
9
00:03:04,542 --> 00:03:08,365
Дорогая мама, я не смогла
попрощаться, когда уезжала,
10
00:03:08,542 --> 00:03:11,614
поэтому попросила месье Сен-Марка
передать тебе это письмо.
11
00:03:12,250 --> 00:03:14,491
Я отблагодарила своего благодетеля,
12
00:03:14,792 --> 00:03:17,500
который снова мне помог.
13
00:03:18,500 --> 00:03:22,164
Я постараюсь заслужить его доверие,
как и смотрителя,
14
00:03:22,625 --> 00:03:24,582
который дал мне эту работу.
15
00:03:25,417 --> 00:03:28,250
Твоя любимая дочь, Алексина.
16
00:03:28,500 --> 00:03:32,323
Ла-Рошель, 31 августа 1858 года.
17
00:03:33,833 --> 00:03:35,915
Моя дорогая дочь Алексина!
18
00:03:36,583 --> 00:03:41,953
Я диктовала это письмо
месье Сен-Марку.
19
00:03:43,208 --> 00:03:47,327
Я не жалею обо всех своих жертвах
во имя твоего образования,
20
00:03:47,500 --> 00:03:51,915
ибо оно спасет тебя от нищеты.

Скриншот c названием фильма

Скриншоты

[teatrix.ru].t5650.torrent 
Торрент: Зарегистрирован [ 2015-10-09 00:55 ] · 46C39B3F6CADCE0125A137CEE092B4A83CADA6CE

Скачать .torrent

Скачать

13 KB

Статус: проверено
Скачан: 0 раз
Размер: 1.27 GB
terms.php



Быстрый ответ

Имя:

      
Для отправки сообщений необходимо включить JavaScript
Показать сообщения:    

Текущее время: 02-Дек 21:10

Часовой пояс: UTC + 3


Вы можете начинать темы
Вы можете отвечать на сообщения
Вы не можете редактировать свои сообщения
Вы не можете удалять свои сообщения
Вы не можете голосовать в опросах
Вы не можете прикреплять файлы к сообщениям
Вы можете скачивать файлы