Сентиментальное образование / Educação Sentimental (Жулио Брессане / Júlio Bressane) [2013, Бразилия, драма, TVRip] Sub Rus + Original Por


Статистика раздачи [Обновить пиров]
Размер:  1.37 GB   |    Зарегистрирован:  1 год 2 месяца   |    Скачан:  2 раза

Полного источника не было: 9 дней

 
   
 
 
 

[Цитировать]

Сентиментальное образование / Educação Sentimental
Страна: Бразилия
Жанр: Драма
Год выпуска: 2013
Продолжительность: 01:23:05
Перевод: Субтитры
Cубтитры: русские
Оригинальная аудиодорожка: португальский
Режиссер: Жулио Брессане / Júlio Bressane
В ролях: Жози Антелльо / Josi Antello, Бернардо Мариньо / Bernardo Marinho
Описание: Очень интеллигентная и впечатлительная женщина встречает юношу. Он напоминает ей прекрасного Эндимиона. К тому же, он оказывается совсем не подкованным в изощренных интеллектуальных вопросах. Она начинает его обучение. Но проблема в том, что у парня совсем не простое прошлое.
Сэмпл: http://sendfile.su/1154522
Качество видео: TVRip
Формат видео: MKV
Видео: 2 175 Kbps, 640*352 (16:9), at 29.970 fps, AVC (Main@L3.0) (CABAC / 2 Ref Frames)
Аудио: 192 Kbps, 48.0 KHz, 2 channels, MPEG Audio (MP3) (Version 1) (Layer 3) (Joint Stereo / MS Sstereo)
Формат субтитров: softsub (SRT)

MediaInfo

General
Unique ID : 240028734258156373144587145421808580194 (0xB493DA496005B00286DA43ED6DC5B662)
Complete name : C:\Users\Никита\Desktop\Сентиментальное образование\Educação Sentimental (2013) Júlio Bressane.TVRip.mkv
Format : Matroska
Format version : Version 1
File size : 1.37 GiB
Duration : 1h 23mn
Overall bit rate : 2 352 Kbps
Encoded date : UTC 2014-01-29 20:09:37
Writing application : VirtualDubMod 1.5.10.2 (build 2542/release)
Writing library : libebml-0.7.5 & libmatroska-0.7.7
Video
ID : 1
Format : AVC
Format/Info : Advanced Video Codec
Format profile : Main@L3.0
Format settings, CABAC : Yes
Format settings, ReFrames : 2 frames
Codec ID : V_MS/VFW/FOURCC / H264
Duration : 1h 23mn
Bit rate : 2 157 Kbps
Width : 640 pixels
Height : 352 pixels
Display aspect ratio : 16:9
Frame rate mode : Constant
Frame rate : 29.970 fps
Color space : YUV
Chroma subsampling : 4:2:0
Bit depth : 8 bits
Scan type : Progressive
Bits/(Pixel*Frame) : 0.319
Stream size : 1.23 GiB (90%)
Writing library : x264 core 93 r1538bm bd72d46
Encoding settings : cabac=1 / ref=1 / deblock=1:0:0 / analyse=0x1:0x131 / me=hex / subme=4 / psy=1 / psy_rd=0.00:0.00 / mixed_ref=0 / me_range=16 / chroma_me=0 / trellis=1 / 8x8dct=0 / cqm=0 / deadzone=21,11 / fast_pskip=1 / chroma_qp_offset=0 / threads=2 / sliced_threads=1 / slices=2 / nr=0 / decimate=1 / interlaced=0 / constrained_intra=0 / bframes=2 / b_pyramid=0 / b_adapt=1 / b_bias=0 / direct=1 / wpredb=1 / wpredp=2 / keyint=250 / keyint_min=25 / scenecut=40 / intra_refresh=0 / rc=2pass / mbtree=0 / bitrate=2157 / ratetol=1.0 / qcomp=0.60 / qpmin=10 / qpmax=51 / qpstep=4 / cplxblur=20.0 / qblur=0.5 / ip_ratio=1.40 / pb_ratio=1.30 / aq=1:1.00
Language : English
Default : Yes
Forced : No
Audio
ID : 2
Format : MPEG Audio
Format version : Version 1
Format profile : Layer 3
Mode : Joint stereo
Mode extension : MS Stereo
Codec ID : A_MPEG/L3
Codec ID/Hint : MP3
Duration : 1h 23mn
Bit rate mode : Constant
Bit rate : 192 Kbps
Channel(s) : 2 channels
Sampling rate : 48.0 KHz
Compression mode : Lossy
Stream size : 114 MiB (8%)
Writing library : LAME3.97
Encoding settings : -m j -V 4 -q 2 -lowpass 18.6 -b 192
Language : English
Default : Yes
Forced : No

Скриншот c названием фильма

Пример субтитров

118
00:14:42,686 --> 00:14:44,523
у них не было времени.
119
00:14:45,781 --> 00:14:49,648
Тирания политической экономии
усеяло человеческое сердце.
120
00:14:52,011 --> 00:14:54,611
Это больше не место для чувств.
121
00:14:55,552 --> 00:14:56,552
Отныне...
122
00:14:57,123 --> 00:15:00,093
бесстыдный значит чувственный.
123
00:15:04,717 --> 00:15:09,221
Есть люди, которые очень
плохо осведомлены о человеческом сердце.
124
00:15:31,391 --> 00:15:34,031
Это специальный текст...
125
00:15:35,889 --> 00:15:38,584
написанный в 1740 году.
126
00:15:40,556 --> 00:15:45,356
Его особенность в том, что произведение
было опубликовано автором анонимно...
127
00:15:45,744 --> 00:15:50,067
чтобы подчеркнуть важность оригинала...
128
00:15:50,138 --> 00:15:51,582
того же самого автора.
129
00:15:54,946 --> 00:15:56,227
Он резюмировал текст...
130
00:15:57,414 --> 00:16:00,515
чтобы сделать его более удобоваримым...
131
00:16:01,555 --> 00:16:03,023
для своих немногих читателей.
132
00:16:07,223 --> 00:16:08,223
Для него...
133
00:16:08,694 --> 00:16:10,205
природа человека...
134
00:16:10,736 --> 00:16:11,736
Человек...
135
00:16:12,174 --> 00:16:13,174
это...
136
00:16:15,063 --> 00:16:16,063
обычай,
137
00:16:16,258 --> 00:16:17,789
схожесть,
138
00:16:18,461 --> 00:16:20,210
близость,
139
00:16:20,773 --> 00:16:21,773
основание.
140
00:16:23,312 --> 00:16:24,312
Обычай:
141
00:16:25,326 --> 00:16:27,593
это не причина для продолжения жизни,
142
00:16:28,037 --> 00:16:29,104
а просто обычай.

Скриншоты

[teatrix.ru].t5652.torrent 
Торрент: Зарегистрирован [ 2015-10-09 00:55 ] · B22B295502A51D1625195B814139CFF3640D0270

Скачать .torrent

Скачать

14 KB

Статус: проверено
Скачан: 2 раз
Размер: 1.37 GB
terms.php



Быстрый ответ

Имя:

      
Для отправки сообщений необходимо включить JavaScript
Показать сообщения:    

Текущее время: 10-Дек 13:50

Часовой пояс: UTC + 3


Вы можете начинать темы
Вы можете отвечать на сообщения
Вы не можете редактировать свои сообщения
Вы не можете удалять свои сообщения
Вы не можете голосовать в опросах
Вы не можете прикреплять файлы к сообщениям
Вы можете скачивать файлы