Дзэн-нуар / Zen Noir (Марк Розенбуш / Marc Rosenbush) [2004, США, детектив, черная комедия, нео нуар, мистика, сюрреализм, DVB-AVC] DVO (Kino Polska)


Статистика раздачи [Обновить пиров]
Размер:  797 MB   |    Зарегистрирован:  1 год 1 месяц   |    Скачан:  1 раз

Полного источника не было: 2 дня 21 час

 
   
 
 
 

[Цитировать]

Дзэн-нуар
Zen Noir- Страна: США
Жанр: детектив, черная комедия, нео нуар, мистика, сюрреализм
Год выпуска: 2004
Продолжительность: 01:08:11Перевод: Профессиональный (двухголосый закадровый) по заказу Kino Polska на производственно-технической базе Студии "Акцент"
Cубтитры: нет
Режиссер: Марк Розенбуш / Marc Rosenbush
В ролях: Дуэйн Шарп / Duane Sharp (The Detective), Ким Чан / Kim Chan (The Master), Дебра Миллер / Debra Miller (Jane), Эзра Баззингтон / Ezra Buzzington (Ed), Дженнифер Сибел Ньюсом / Jennifer Siebel Newsom (Nora), Ховард Фонг / Howard Fong (The Dead Monk)
Описание: Частный детектив прибывает в дзэнский монастырь для расследования загадочной смерти одного из монахов. Но цепь странных событий в монастыре заставляет героя усомниться в верности своего образа жизни и мышления и произвести переоценку ценностей.
Доп. информация: Filmbox IPTV
Награды: приз "Замок из песка" за лучший фильм Moondance International Film Festival 2004; приз лучшей актрисе (Debra Miller) Chicago Indiefest 2004; приз зрительских симпатий за лучший фильм Rhode Island International Film Festival 2004; Гран-при жюри за лучший фильм Washington DC Independent Film Festival 2005; Президентская награда им. Джералда Хиршфельда от Американского общества кинооператоров на Ashland Independent Film Festival 2005; номинация на приз St. Louis Film Critics Association, US 2006 за самый оригинальный, инновационный и креативный фильм.

Качество видео: DVB-AVC
Формат видео: MKV
Видео: AVC (H.264), 720x576@1024x576 (16:9), 25 fps, ~1474 kbps avg, 0.142 bit/pixel
Аудио: MPEG Audio 2, 2 ch, 48 kHz, ~128.00 kbps avg

MediaInfo

ОбщееУникальный идентификатор : 187431896025675548322382428963792978934 (0x8D0211F2A85DB184AA55798F0FFB83F6)Полное имя : F:\My Torrents 3\[apreder]Zen_Noir(2004)DVB.mkvФормат : MatroskaВерсия формата : Version 2Размер файла : 797 МбайтПродолжительность : 1 ч. 8 м.Общий поток : 1634 Кбит/секДата кодирования : UTC 2015-09-13 06:29:13Программа кодирования : mkvmerge v8.3.0 ('Over the Horizon') 64bitБиблиотека кодирования : libebml v1.3.1 + libmatroska v1.4.2Attachements : cover.jpg / cover_small.jpgTITLE : Zen NoirIMDB : tt0407337DATE_RELEASED : 20014-04-21LAW_RATING : 18+GENRE : Comedy, Drama, MysteryACTOR : Duane Sharp, Kim Chan, Debra MillerDIRECTOR : Marc RosenbushKEYWORDS :
ВидеоИдентификатор : 1Формат : AVCФормат/Информация : Advanced Video CodecПрофиль формата : High@L3Параметр CABAC формата : ДаПараметр ReFrames формата : 3 кадраПараметр GOP формата : M=1, N=25Идентификатор кодека : V_MPEG4/ISO/AVCПродолжительность : 1 ч. 8 м.Битрейт : 1474 Кбит/секШирина : 720 пикселейВысота : 576 пикселейСоотношение сторон : 16:9Соотношение сторон в оригинале : 16:9Режим частоты кадров : ПостоянныйЧастота кадров : 25,000 кадров/секСтандарт вещания : PALЦветовое пространство : YUVСубдискретизация насыщенности : 4:2:0Битовая глубина : 8 битТип развёртки : ПрогрессивнаяБит/(Пиксели*Кадры) : 0.142Размер потока : 719 Мбайт (90%)Default : ДаForced : Нет
АудиоИдентификатор : 2Формат : MPEG AudioВерсия формата : Version 1Профиль формата : Layer 2Идентификатор кодека : A_MPEG/L2Идентификатор кодека/Подсказка : MP2Продолжительность : 1 ч. 8 м.Вид битрейта : ПостоянныйБитрейт : 128 Кбит/секКаналы : 2 каналаЧастота : 48,0 КГцМетод сжатия : С потерямиЗадержка видео : -4 мс.Размер потока : 62,4 Мбайт (8%)Язык : RussianDefault : ДаForced : Нет

Скриншот c названием фильма

Скриншоты


Резервные скриншоты


[teatrix.ru].t5654.torrent 
Торрент: Зарегистрирован [ 2015-10-09 00:55 ] · 377C2F6BF52B468A65721383185DABDEAA17202C

Скачать .torrent

Скачать

16 KB

Статус: проверено
Скачан: 1 раз
Размер: 797 MB
terms.php



Быстрый ответ

Имя:

      
Для отправки сообщений необходимо включить JavaScript
Показать сообщения:    

Текущее время: 03-Дек 12:39

Часовой пояс: UTC + 3


Вы можете начинать темы
Вы можете отвечать на сообщения
Вы не можете редактировать свои сообщения
Вы не можете удалять свои сообщения
Вы не можете голосовать в опросах
Вы не можете прикреплять файлы к сообщениям
Вы можете скачивать файлы