Последняя жизнь во Вселенной / Ruang rak noi nid mahasan / Last Life in the Universe (Пен-ек Ратанаруанг / Pen-Ek Ratanaruang) [2003, Таиланд, Япония, драма, мелодрама, комедия, DVDRip-AVC] DVO (TV1000) + AVO (Визгунов) + Sub Rus + Original


Статистика раздачи [Обновить пиров]
Размер:  2.18 GB   |    Зарегистрирован:  1 год 2 месяца   |    Скачан:  0 раз

Полного источника не было: Никогда

 
   
 
 
 

[Цитировать]

Последняя жизнь во Вселенной / Ruang rak noi nid mahasan / Last Life in the Universe
Страна: Таиланд, Япония
Жанр: драма, мелодрама, комедия
Год выпуска: 2003
Продолжительность: 01:43:46
Перевод №1: Профессиональный (двухголосый закадровый) TV1000
Перевод №2: Авторский (одноголосый закадровый) С. Визгунов
Cубтитры: русские (by arexibo, редакция alextar)
Оригинальная аудиодорожка: тайский, японский, английский
Навигация по главам: есть
Режиссер: Пен-ек Ратанаруанг / Pen-Ek Ratanaruang
В ролях: Асано Таданобу /Asano Tadanobu, Синитта Буньясак /Sinitta Boonyasak, Лайла Буньясак /Laila Boonyasak, Мацусигэ Ютака /Matsushige Yutaka, Такэути Рики /Takeuchi Riki, Миикэ Такаси /Miike Takashi, Танака Ёдзи /Tanaka Yoji, Сато Сакити /Sato Sakichi, Накадзава Дзюнко /Nakazawa Junko
О фильме: Работа трех неповторимо талантливых художников современного мирового кинематографа представлена в этом фильме: режиссера Пен-ек Ратанаруанга, японской суперзвезды Асано Таданобу ("Убийца Ити", "Затоiчи", "Монгол") и оператора Кристофера Дойла ("Чунгкингский экспресс", "Счастливы вместе", "Герой", "Психоз", "2046", "Любовное настроение", "Прах времени").
«Последняя жизнь во вселенной» – одновременно странная, смешная, нежная история о жизни и смерти, братьях и сёстрах, о превратностях судьбы, которые сталкивают людей друг с другом, когда, казалось бы, ничто не может уже помочь. Это маленький шедевр о силе любви, которая может все изменить. Японец Кэндзи живет в Бангкоке и работает в библиотеке. Он страдает излишним аккуратизмом и всё свободное время в своих безжизненных апартаментах думает о самоубийстве. Его жизнь неожиданно меняется после того, как он становится свидетелем смерти девушки по имени Нид за несколько секунд до того, как сам собирался умереть, прыгнув с моста. Жизненные пути Кэндзи и старшей сестры Нид, Ной сталкиваются. Две потерянные одинокие души помогают друг другу обрести смысл их бесцельного существования.
Доп. информация: http://www.imdb.com/title/tt0345549/
Сэмпл: http://sendfile.su/1153638
Качество видео: DVDRip-AVC
Формат видео: MKV
Видео: x264, 712x572@1013x572 (16:9), 25 fps, ~2180 kbps avg, 0.21 bit/pixel
Аудио #1: 48 kHz, AC3 Dolby Digital, 2/0 (L,R) ch, ~192 kbps avg - Original
Аудио #2: 48 kHz, AC3 Dolby Digital, 2/0 (L,R) ch, ~192 kbps avg - AVO
Аудио #3: 48 kHz, AC3 Dolby Digital, 3/2 (L,C,R,l,r) + LFE ch, ~384 kbps avg - DVO

MediaInfo

Общее
Уникальный идентификатор : 232336533479901197272410590511975847023 (0xAECA6381DEAFB1E8BA61BCB056D7546F)
Полное имя : H:\Фильмы\Последняя жизнь во Вселенной\Last.Life.in.the.Universe.2003.DVDRip-AVC.mkv
Формат : Matroska
Версия формата : Version 2
Размер файла : 2,18 Гбайт
Продолжительность : 1 ч. 43 м.
Общий поток : 3014 Кбит/сек
Название фильма : Last Life in the Universe (Pen-Ek Ratanaruang, 2003) DVDRip-AVC
Дата кодирования : UTC 2015-09-03 12:43:07
Программа кодирования : mkvmerge v7.6.0 ('Garden of Dreams') 32bit built on Feb 11 2015 00:18:47
Библиотека кодирования : libebml v1.3.1 + libmatroska v1.4.2
Видео
Идентификатор : 1
Формат : AVC
Формат/Информация : Advanced Video Codec
Профиль формата : High@L4.1
Параметр CABAC формата : Да
Параметр ReFrames формата : 12 кадров
Идентификатор кодека : V_MPEG4/ISO/AVC
Продолжительность : 1 ч. 43 м.
Битрейт : 2180 Кбит/сек
Ширина : 712 пикселей
Высота : 572 пикселя
Соотношение сторон : 16:9
Соотношение сторон в оригинале : 16:9
Режим частоты кадров : Постоянный
Частота кадров : 25,000 кадров/сек
Цветовое пространство : YUV
Субдискретизация насыщенности : 4:2:0
Битовая глубина : 8 бит
Тип развёртки : Прогрессивная
Бит/(Пиксели*Кадры) : 0.214
Размер потока : 1,54 Гбайт (70%)
Библиотека кодирования : x264 core 148 r2579 73ae2d1
Настройки программы : cabac=1 / ref=12 / deblock=1:-1:-1 / analyse=0x3:0x133 / me=umh / subme=10 / psy=1 / psy_rd=1.00:0.10 / mixed_ref=1 / me_range=48 / chroma_me=1 / trellis=2 / 8x8dct=1 / cqm=0 / deadzone=21,11 / fast_pskip=0 / chroma_qp_offset=-3 / threads=6 / lookahead_threads=1 / sliced_threads=0 / nr=0 / decimate=0 / interlaced=0 / bluray_compat=0 / constrained_intra=0 / bframes=12 / b_pyramid=2 / b_adapt=2 / b_bias=0 / direct=3 / weightb=1 / open_gop=0 / weightp=2 / keyint=250 / keyint_min=25 / scenecut=40 / intra_refresh=0 / rc=2pass / mbtree=0 / bitrate=2180 / ratetol=1.0 / qcomp=0.65 / qpmin=10 / qpmax=51 / qpstep=4 / cplxblur=20.0 / qblur=0.5 / ip_ratio=1.30 / pb_ratio=1.20 / aq=2:0.80 / zones=150218,155652
Язык : English
Default : Да
Forced : Нет
Коэффициенты матрицы : BT.601
Аудио #1
Идентификатор : 2
Формат : AC-3
Формат/Информация : Audio Coding 3
Расширение режима : CM (complete main)
Параметр Endianness формата : Big
Идентификатор кодека : A_AC3
Продолжительность : 1 ч. 43 м.
Вид битрейта : Постоянный
Битрейт : 192 Кбит/сек
Каналы : 2 канала
Расположение каналов : Front: L R
Частота : 48,0 КГц
Метод сжатия : С потерями
Размер потока : 143 Мбайт (6%)
Заголовок : Original
Язык : Japanese
Default : Нет
Forced : Нет
Аудио #2
Идентификатор : 3
Формат : AC-3
Формат/Информация : Audio Coding 3
Расширение режима : CM (complete main)
Параметр Endianness формата : Big
Идентификатор кодека : A_AC3
Продолжительность : 1 ч. 43 м.
Вид битрейта : Постоянный
Битрейт : 192 Кбит/сек
Каналы : 2 канала
Расположение каналов : Front: L R
Частота : 48,0 КГц
Метод сжатия : С потерями
Размер потока : 143 Мбайт (6%)
Заголовок : AVO - С. Визгунов
Язык : Russian
Default : Нет
Forced : Нет
Аудио #3
Идентификатор : 4
Формат : AC-3
Формат/Информация : Audio Coding 3
Расширение режима : CM (complete main)
Параметр Endianness формата : Big
Идентификатор кодека : A_AC3
Продолжительность : 1 ч. 43 м.
Вид битрейта : Постоянный
Битрейт : 448 Кбит/сек
Каналы : 6 каналов
Расположение каналов : Front: L C R, Side: L R, LFE
Частота : 48,0 КГц
Метод сжатия : С потерями
Размер потока : 333 Мбайт (15%)
Заголовок : DVO - TV1000
Язык : Russian
Default : Да
Forced : Нет
Текст
Идентификатор : 5
Формат : UTF-8
Идентификатор кодека : S_TEXT/UTF8
Идентификатор кодека/Информация : UTF-8 Plain Text
Заголовок : by arexibo, редакция alextar
Язык : Russian
Default : Нет
Forced : Нет
Меню
00:00:00.000 : en:01 suicide
00:10:49.200 : en:02 nid
00:21:52.760 : en:03 the assassin
00:27:23.160 : en:04 noi and kenji
00:33:09.120 : en:05 noi's house
00:39:55.800 : en:06 kenji alone
00:48:30.520 : en:07 sushi
00:56:20.520 : en:08 housekeeping
01:04:26.480 : en:09 a night out
01:12:25.880 : en:10 sisters
01:19:29.440 : en:11 preparing to leave
01:27:50.520 : en:12 the yakuza
01:36:20.720 : en:13 japan
01:40:08.720 : en:14 end titles

x264

x264 [info]: frame I:758 Avg QP:15.84 size: 56075
x264 [info]: frame P:28953 Avg QP:17.56 size: 25159
x264 [info]: frame B:125941 Avg QP:18.77 size: 7349
x264 [info]: consecutive B-frames: 0.9% 0.7% 4.9% 9.2% 7.9% 69.1% 2.7% 0.5% 0.5% 0.2% 0.1% 2.8% 0.5%
x264 [info]: mb I I16..4: 9.1% 63.4% 27.5%
x264 [info]: mb P I16..4: 0.8% 10.5% 2.5% P16..4: 37.8% 26.7% 16.8% 0.8% 0.3% skip: 3.9%
x264 [info]: mb B I16..4: 0.0% 0.7% 0.2% B16..8: 35.4% 9.7% 2.7% direct:10.7% skip:40.5% L0:37.4% L1:37.7% BI:24.9%
x264 [info]: 8x8 transform intra:73.7% inter:46.8%
x264 [info]: direct mvs spatial:99.2% temporal:0.8%
x264 [info]: coded y,uvDC,uvAC intra: 92.4% 76.3% 55.0% inter: 32.9% 19.1% 8.0%
x264 [info]: i16 v,h,dc,p: 37% 12% 11% 40%
x264 [info]: i8 v,h,dc,ddl,ddr,vr,hd,vl,hu: 21% 13% 10% 7% 9% 12% 9% 11% 10%
x264 [info]: i4 v,h,dc,ddl,ddr,vr,hd,vl,hu: 23% 10% 5% 7% 11% 14% 9% 11% 9%
x264 [info]: i8c dc,h,v,p: 31% 28% 27% 14%
x264 [info]: Weighted P-Frames: Y:12.2% UV:4.4%
x264 [info]: ref P L0: 42.3% 12.1% 15.9% 7.9% 5.7% 4.5% 3.6% 2.2% 1.8% 1.5% 1.2% 0.9% 0.2% 0.0%
x264 [info]: ref B L0: 84.1% 9.3% 2.6% 1.2% 0.8% 0.6% 0.5% 0.3% 0.3% 0.2% 0.1%
x264 [info]: ref B L1: 97.3% 2.7%
[teatrix.ru].t5655.torrent 
Торрент: Зарегистрирован [ 2015-10-09 00:55 ] · 867D9106D5C60068ABE45CFD1B6B1F52616B9F89

Скачать .torrent

Скачать

11 KB

Статус: проверено
Скачан: 0 раз
Размер: 2.18 GB
terms.php



Быстрый ответ

Имя:

      
Для отправки сообщений необходимо включить JavaScript
Показать сообщения:    

Текущее время: 09-Дек 14:34

Часовой пояс: UTC + 3


Вы можете начинать темы
Вы можете отвечать на сообщения
Вы не можете редактировать свои сообщения
Вы не можете удалять свои сообщения
Вы не можете голосовать в опросах
Вы не можете прикреплять файлы к сообщениям
Вы можете скачивать файлы