Мудрость / Ла Сапиенца / La Sapienza (Эжен Грин / Eugene Green) [2014, Франция, Италия, драма, HDRip-AVC] Sub Rus + Original Ita / Fre / Eng


 

[Цитировать]

Мудрость / Ла Сапиенца / La Sapienza
Страна: Франция, Италия
Жанр: драма
Год выпуска: 2014
Продолжительность: 01:44:51
Перевод: Субтитры
Cубтитры: русские
Оригинальная аудиодорожка: итальянский, французская, английская
Режиссер: Эжен Грин / Eugene Green
В ролях: Фабрицио Ронджоне/Fabrizio Rongione, Кристель Про Ландман/Christelle Prot Landman, Людовико Зукко/Ludovico Succio, Арианна Настро/Arianna Nastro, Эрве Компань/Hervé Compagne, Сабин Понте/Sabine Ponte, Жиль Тоннеле/Gilles Tonnelé, Натали Шазо/Nathalie Chazeau, Ирен Фиттабиль/Irene Fittabile, Мишель Франко/Michele Franco, Йон Фирман/Jon Firman, Марио Буа/Mario Bois, Клеман Когитор/Clément Cogitore, Кьяра Мальта/Chiara Malta, Себастьян Лоденбаш/Sébastien Laudenbach
Описание: Жизнь архитектора Александра Шмидта ровная и спокойная: работа, проекты, награды. У его жены Алиенор тоже всё хорошо – она работает над улучшением жизни разных групп. Но всё это спокойствие скорее напоминает не удовлетворённый покой, а комфортабельное омертвение.
Однажды Александр Шмидт едет по местам работы архитектора Франческо Борромини, чтобы закончить давно заброшенный текст об этом великом творце эпохи барокко, а Алиенор, желая сменить обстановку, решает сопроводить его в этом путешествии. В северной Италии чета Шмидтов знакомится с молодыми Гоффредо и Лавинией, братом и сестрой.
Алиенор остаётся с Лавинией, которой нездоровится, Александр едет в Рим с Гоффредо, который тоже хочет быть архитектором, чтобы посмотреть на творения Борромини, в том числе и на «Ла Сапиенца» (Сант-Иво алла Сапиенца). Встречи с молодыми людьми, разговоры об архитектуре, свете, Христе, мудрости и призраках позволит Алиенор и Александру снова почувствовать себя живыми и любящими.
Доп. информация: Перевод – Екатерина Бондарева.
Файл взят с Карагарги, за что благодарим blueboy.
Сэмпл: http://multi-up.com/1065201
Качество видео: HDRip-AVC
Формат видео: MKV
Видео: V_MPEG4/ISO/AVC at 2100 kbps, 0.148 bit/pixel, 1024x576 (16:9) at 23,976 fps
Аудио: AC-3 at 192.00 kbps, 6 (Front: L C R, Side: L R, LFE) ch, 48 kHz
Формат субтитров: softsub (SRT)

MediaInfo

Общее
Уникальный идентификатор : 237445622454045009286441104923258098289 (0xB2A25D0AB7C3E4A58F975A6345D19271)
Полное имя : Eugene Green_La Sapienza (2014).mkv
Формат : Matroska
Версия формата : Version 4 / Version 2
Размер файла : 1,68 Гбайт
Продолжительность : 1 ч. 44 м.
Общий поток : 2293 Кбит/сек
Дата кодирования : UTC 2015-09-02 13:59:45
Программа кодирования : mkvmerge v6.9.1 ('Blue Panther') 32bit built on Apr 18 2014 18:15:44
Библиотека кодирования : libebml v1.3.0 + libmatroska v1.4.1
_STATISTICS_WRITING_APP : mkvmerge v7.7.0 ('Six Voices') 64bit built on Feb 28 2015 23:39:33
_STATISTICS_WRITING_DATE_UTC : 2015-08-30 16:40:46
_STATISTICS_TAGS : BPS DURATION NUMBER_OF_FRAMES NUMBER_OF_BYTES
DURATION : 01:44:51.360000000
NUMBER_OF_FRAMES : 196605
NUMBER_OF_BYTES : 150992640
Видео
Идентификатор : 1
Формат : AVC
Формат/Информация : Advanced Video Codec
Профиль формата : High@L4.1
Параметр CABAC формата : Да
Параметр ReFrames формата : 9 кадров
Идентификатор кодека : V_MPEG4/ISO/AVC
Продолжительность : 1 ч. 44 м.
Битрейт : 2100 Кбит/сек
Ширина : 1024 пикселя
Высота : 576 пикселей
Соотношение сторон : 16:9
Режим частоты кадров : Постоянный
Частота кадров : 23,976 кадра/сек
Цветовое пространство : YUV
Субдискретизация насыщенности : 4:2:0
Битовая глубина : 8 бит
Тип развёртки : Прогрессивная
Бит/(Пиксели*Кадры) : 0.148
Размер потока : 1,51 Гбайт (90%)
Библиотека кодирования : x264 core 148 r2579 73ae2d1
Настройки программы : cabac=1 / ref=9 / deblock=1:-2:-2 / analyse=0x3:0x113 / me=umh / subme=9 / psy=1 / psy_rd=1.00:0.00 / mixed_ref=1 / me_range=24 / chroma_me=1 / trellis=2 / 8x8dct=1 / cqm=0 / deadzone=21,11 / fast_pskip=0 / chroma_qp_offset=-2 / threads=12 / lookahead_threads=3 / sliced_threads=0 / nr=0 / decimate=0 / interlaced=0 / bluray_compat=0 / constrained_intra=0 / bframes=16 / b_pyramid=2 / b_adapt=2 / b_bias=0 / direct=3 / weightb=1 / open_gop=0 / weightp=2 / keyint=240 / keyint_min=23 / scenecut=40 / intra_refresh=0 / rc_lookahead=60 / rc=2pass / mbtree=1 / bitrate=2100 / ratetol=1.0 / qcomp=0.60 / qpmin=0 / qpmax=69 / qpstep=4 / cplxblur=20.0 / qblur=0.5 / vbv_maxrate=50000 / vbv_bufsize=50000 / nal_hrd=none / filler=0 / ip_ratio=1.40 / aq=1:1.00
Default : Да
Forced : Нет
Цветовой диапазон : Limited
Основные цвета : BT.709
Характеристики трансфера : BT.709
Коэффициенты матрицы : BT.709
Аудио
Идентификатор : 2
Формат : AC-3
Формат/Информация : Audio Coding 3
Расширение режима : CM (complete main)
Параметр Endianness формата : Big
Идентификатор кодека : A_AC3
Продолжительность : 1 ч. 44 м.
Вид битрейта : Постоянный
Битрейт : 192 Кбит/сек
Каналы : 6 каналов
Расположение каналов : Front: L C R, Side: L R, LFE
Частота : 48,0 КГц
Метод сжатия : С потерями
Размер потока : 144 Мбайт (8%)
Default : Да
Forced : Нет

Фрагмент субтитров

1
00:00:11,271 --> 00:00:14,861
МАКТ продюксьон
2
00:00:19,315 --> 00:00:23,110
РАИ Чинема
3
00:00:36,550 --> 00:00:40,565
Ла Сарраз Пиктюр
4
00:01:03,408 --> 00:01:08,158
Фабрицио Ронджоне
5
00:01:09,163 --> 00:01:13,789
Кристель Про Ландман
6
00:01:14,862 --> 00:01:19,337
Людовико Зукко
7
00:01:20,516 --> 00:01:25,143
Арианна Настро
8
00:02:06,091 --> 00:02:10,215
Эрве Компань, Сабин Понте,
Жиль Тоннеле, Натали Шазо и другие
9
00:02:28,880 --> 00:02:32,963
Сценарий и диалоги
Эжен Грин
10
00:02:40,810 --> 00:02:44,626
Главный оператор
Рафаэль О'Бирн
11
00:03:35,448 --> 00:03:39,894
Монтаж
Валери Луазело
12
00:03:49,446 --> 00:03:51,528
Художник-постановщик
Джорджио Барулло
13
00:03:51,666 --> 00:03:53,646
Художник по костюмам
Аньес Ноде
14
00:04:31,171 --> 00:04:33,321
Композитор
Клаудио Монтеверди
15
00:04:40,162 --> 00:04:44,515
Продюсеры Мартин де Клермон-Тоннер
Алессандро Борелли
16
00:04:45,600 --> 00:04:47,720
МУДРОСТЬ
17
00:04:47,752 --> 00:04:51,570
МУДРОСТЬ
Фильм Эжена Грина
18
00:04:52,120 --> 00:04:55,360
Премудрость есть чистый отблеск
вечного света.
19
00:04:55,600 --> 00:04:57,000
Книга премудрости Соломона
20
00:04:57,200 --> 00:05:01,480
Мудрость не посетит злой души,
а наука без совести опустошает душу.

Скриншот c названием фильма

Скриншоты




Показать сообщения:    

Текущее время: 09-Дек 18:34

Часовой пояс: UTC + 3


Вы не можете начинать темы
Вы не можете отвечать на сообщения
Вы не можете редактировать свои сообщения
Вы не можете удалять свои сообщения
Вы не можете голосовать в опросах
Вы не можете прикреплять файлы к сообщениям
Вы не можете скачивать файлы