Трое в Нью-Йорке / Поколение Эм... / Generation Um... (Марк Манн / Mark Mann) [2012, США, драма, HDRip-AVC] Sub Rus + Original Eng


 

[Цитировать]

Трое в Нью-Йорке / Поколение Эм... / Generation Um...
Страна: США
Жанр: Драма
Год выпуска: 2012
Продолжительность: 01:36:55-Перевод: Субтитры
Субтитры: русские
Оригинальная аудиодорожка: английский-Режиссер: Марк Манн / Mark Mann
В ролях: Киану Ривз, Бояна Новакович, Эделейд Клеменс, Джэйк Хоффман, Эшли Остин Моррис, Карен Оливо, Иван Мартин, Джозеф Басиле, Узиманн, Кай Чэпман-Описание: Картина повествует о странной и безыскусной жизни двух девушек по вызову и их водителя- -Доп. информация: По скольку в одноголосном переводе 30% переведено неправильно, вот вам раздача с оригинальной дорожкой и русскими субтитрами, которых вы больше нигде не найдете.-Осторожно!!!
В переводе присутствует ненормативная лексика!
-Сэмпл: Скачать-Качество видео: HDRip-AVC
Формат видео: MKV-Видео: MPEG4 Video (H264) 1152x624 23.976fps 2 334 Kbps
Аудио: Dolby AC3 48000Hz 6ch 448 Kbps [English]-

MediaInfo

General
Complete name : E:\Generation Um 2012 BDRip [Effx]\Generation Um [Effx].mkv
Format : Matroska
Format version : Version 2
File size : 1.88 GiB
Duration : 1h 36mn
Overall bit rate : 2 784 Kbps
Writing application : libmatroska 1.3.0
Writing library : SolveigMM Matroska Muxer Version 1.0.1208.20
Video
ID : 1
Format : AVC
Format/Info : Advanced Video Codec
Format profile : High@L4.1
Format settings, CABAC : Yes
Format settings, ReFrames : 7 frames
Codec ID : V_MPEG4/ISO/AVC
Duration : 1h 36mn
Bit rate : 2 334 Kbps
Width : 1 152 pixels
Height : 624 pixels
Display aspect ratio : 1.85:1
Frame rate mode : Constant
Frame rate : 23.976 fps
Color space : YUV
Chroma subsampling : 4:2:0
Bit depth : 8 bits
Scan type : Progressive
Bits/(Pixel*Frame) : 0.135
Stream size : 1.54 GiB (82%)
Writing library : x264 core 133 r2334 a3ac64b
Encoding settings : cabac=1 / ref=7 / deblock=1:-2:-1 / analyse=0x3:0x133 / me=umh / subme=9 / psy=1 / psy_rd=1.00:0.00 / mixed_ref=1 / me_range=32 / chroma_me=1 / trellis=0 / 8x8dct=1 / cqm=0 / deadzone=6,4 / fast_pskip=1 / chroma_qp_offset=-2 / threads=2 / lookahead_threads=1 / sliced_threads=0 / nr=0 / decimate=1 / interlaced=0 / bluray_compat=0 / constrained_intra=0 / bframes=8 / b_pyramid=2 / b_adapt=2 / b_bias=0 / direct=3 / weightb=1 / open_gop=0 / weightp=2 / keyint=230 / keyint_min=23 / scenecut=40 / intra_refresh=0 / rc_lookahead=40 / rc=2pass / mbtree=0 / bitrate=2334 / ratetol=1.0 / qcomp=0.60 / qpmin=0 / qpmax=41 / qpstep=4 / cplxblur=20.0 / qblur=0.5 / vbv_maxrate=62500 / vbv_bufsize=78125 / nal_hrd=none / ip_ratio=1.40 / pb_ratio=1.30 / aq=1:1.00
Language : English
Default : No
Forced : No
Audio
ID : 2
Format : AC-3
Format/Info : Audio Coding 3
Mode extension : CM (complete main)
Format settings, Endianness : Big
Codec ID : A_AC3
Duration : 1h 36mn
Bit rate mode : Constant
Bit rate : 448 Kbps
Channel(s) : 6 channels
Channel positions : Front: L C R, Side: L R, LFE
Sampling rate : 48.0 KHz
Bit depth : 16 bits
Compression mode : Lossy
Stream size : 311 MiB (16%)
Language : English
Default : No
Forced : No

Скриншот c названием фильма

Скриншоты

Пример субтитров

129
00:18:06,583 --> 00:18:07,793
Стой смирно.
130
00:18:09,962 --> 00:18:11,338
Ладно.
131
00:18:31,483 --> 00:18:32,484
Боже!
132
00:19:02,348 --> 00:19:04,641
- Есть прикурить?
- Это было быстро.
133
00:19:04,933 --> 00:19:07,394
Не быстро, а эффективно.
134
00:19:08,896 --> 00:19:10,105
Прикурить есть?
135
00:19:11,857 --> 00:19:14,318
Здесь нельзя курить.
136
00:19:14,610 --> 00:19:17,071
Я буду делать, все что захочу.
У кого-нибудь есть прикурить?
137
00:19:17,446 --> 00:19:19,990
Ребята, вы же знаете правила,
тут нельзя курить.
138
00:19:20,491 --> 00:19:22,368
Я буду делать, все что захочу!
139
00:19:22,368 --> 00:19:24,745
Нет, не будешь.
Тут курить запрещено.
140
00:19:24,745 --> 00:19:26,330
Пойми, Виолетта.
141
00:19:26,497 --> 00:19:27,915
Просто дайте мне, блять, прикурить!
142
00:19:29,500 --> 00:19:31,543
Просто посидел в баре с друзьями.
143
00:19:34,546 --> 00:19:36,924
Ты всегда такой серьезный.
144
00:19:37,049 --> 00:19:38,592
Мне это нравится!
145
00:19:41,053 --> 00:19:43,847
Чувак, когда ты наконец-то
пригласишь меня...
146
00:19:43,847 --> 00:19:45,933
в свой супер секретный бар?
147
00:19:45,933 --> 00:19:47,893
Познакомь меня со своими друзьями!
148
00:19:49,436 --> 00:19:51,730
Ты и в правду придурок, не так ли?
149
00:19:51,939 --> 00:19:53,857
Это семейное, кузен.
150
00:19:55,484 --> 00:19:57,653
Хотел бы я избавиться
от такой семьи.
151
00:20:05,869 --> 00:20:08,372
Знаешь, возможно тебе стоит
познакомиться с девушками.
152
00:20:08,580 --> 00:20:10,541
Вы с Виолетт, поладите.



Показать сообщения:    

Текущее время: 09-Дек 10:48

Часовой пояс: UTC + 3


Вы не можете начинать темы
Вы не можете отвечать на сообщения
Вы не можете редактировать свои сообщения
Вы не можете удалять свои сообщения
Вы не можете голосовать в опросах
Вы не можете прикреплять файлы к сообщениям
Вы не можете скачивать файлы